  0
SECTION
  2
HEADER
  9
$ACADVER
  1
AC1009
  9
$INSBASE
 10
1.2351028486011071
 20
11.247746401293711
 30
0.0
  9
$EXTMIN
 10
22.958902988481189
 20
28.283994204824499
 30
0.0
  9
$EXTMAX
 10
27.183684665132709
 20
30.67235819839404
 30
0.0
  9
$LIMMIN
 10
0.0
 20
0.0
  9
$LIMMAX
 10
12.0
 20
9.0
  9
$ORTHOMODE
 70
     1
  9
$REGENMODE
 70
     1
  9
$FILLMODE
 70
     1
  9
$QTEXTMODE
 70
     0
  9
$MIRRTEXT
 70
     0
  9
$DRAGMODE
 70
     2
  9
$LTSCALE
 40
1.0
  9
$OSMODE
 70
   111
  9
$ATTMODE
 70
     1
  9
$TEXTSIZE
 40
0.25
  9
$TRACEWID
 40
0.05
  9
$TEXTSTYLE
  7
STD
  9
$CLAYER
  8
0
  9
$CELTYPE
  6
BYLAYER
  9
$CECOLOR
 62
   256
  9
$DIMSCALE
 40
1.0
  9
$DIMASZ
 40
0.18
  9
$DIMEXO
 40
0.0625
  9
$DIMDLI
 40
0.38
  9
$DIMRND
 40
0.0
  9
$DIMDLE
 40
0.0
  9
$DIMEXE
 40
0.18
  9
$DIMTP
 40
0.0
  9
$DIMTM
 40
0.0
  9
$DIMTXT
 40
0.18
  9
$DIMCEN
 40
0.09
  9
$DIMTSZ
 40
0.0
  9
$DIMTOL
 70
     0
  9
$DIMLIM
 70
     0
  9
$DIMTIH
 70
     1
  9
$DIMTOH
 70
     1
  9
$DIMSE1
 70
     0
  9
$DIMSE2
 70
     0
  9
$DIMTAD
 70
     0
  9
$DIMZIN
 70
     0
  9
$DIMBLK
  1

  9
$DIMASO
 70
     1
  9
$DIMSHO
 70
     1
  9
$DIMPOST
  1

  9
$DIMAPOST
  1

  9
$DIMALT
 70
     0
  9
$DIMALTD
 70
     2
  9
$DIMALTF
 40
25.399999999999999
  9
$DIMLFAC
 40
1.0
  9
$DIMTOFL
 70
     0
  9
$DIMTVP
 40
0.0
  9
$DIMTIX
 70
     0
  9
$DIMSOXD
 70
     0
  9
$DIMSAH
 70
     0
  9
$DIMBLK1
  1

  9
$DIMBLK2
  1

  9
$DIMSTYLE
  2
STANDARD
  9
$DIMCLRD
 70
     0
  9
$DIMCLRE
 70
     0
  9
$DIMCLRT
 70
     0
  9
$DIMTFAC
 40
1.0
  9
$DIMGAP
 40
0.09
  9
$LUNITS
 70
     5
  9
$LUPREC
 70
     6
  9
$SKETCHINC
 40
0.1
  9
$FILLETRAD
 40
0.0
  9
$AUNITS
 70
     0
  9
$AUPREC
 70
     0
  9
$MENU
  1
.
  9
$ELEVATION
 40
0.0
  9
$PELEVATION
 40
0.0
  9
$THICKNESS
 40
0.0
  9
$LIMCHECK
 70
     0
  9
$BLIPMODE
 70
     0
  9
$CHAMFERA
 40
0.5
  9
$CHAMFERB
 40
0.5
  9
$SKPOLY
 70
     0
  9
$TDCREATE
 40
2451225.386950695
  9
$TDUPDATE
 40
2454705.5998131372
  9
$TDINDWG
 40
0.8087013426
  9
$TDUSRTIMER
 40
0.808701169
  9
$USRTIMER
 70
     1
  9
$ANGBASE
 50
0.0
  9
$ANGDIR
 70
     0
  9
$PDMODE
 70
     3
  9
$PDSIZE
 40
0.0
  9
$PLINEWID
 40
0.0
  9
$COORDS
 70
     1
  9
$SPLFRAME
 70
     0
  9
$SPLINETYPE
 70
     6
  9
$SPLINESEGS
 70
     8
  9
$ATTDIA
 70
     0
  9
$ATTREQ
 70
     1
  9
$HANDLING
 70
     1
  9
$HANDSEED
  5
6DC32
  9
$SURFTAB1
 70
     6
  9
$SURFTAB2
 70
     6
  9
$SURFTYPE
 70
     6
  9
$SURFU
 70
     6
  9
$SURFV
 70
     6
  9
$UCSNAME
  2

  9
$UCSORG
 10
0.0
 20
0.0
 30
0.0
  9
$UCSXDIR
 10
1.0
 20
0.0
 30
0.0
  9
$UCSYDIR
 10
0.0
 20
1.0
 30
0.0
  9
$PUCSNAME
  2

  9
$PUCSORG
 10
0.0
 20
0.0
 30
0.0
  9
$PUCSXDIR
 10
1.0
 20
0.0
 30
0.0
  9
$PUCSYDIR
 10
0.0
 20
1.0
 30
0.0
  9
$USERI1
 70
     0
  9
$USERI2
 70
     0
  9
$USERI3
 70
     0
  9
$USERI4
 70
     0
  9
$USERI5
 70
     0
  9
$USERR1
 40
0.0
  9
$USERR2
 40
0.0
  9
$USERR3
 40
0.0
  9
$USERR4
 40
0.0
  9
$USERR5
 40
0.0
  9
$WORLDVIEW
 70
     1
  9
$SHADEDGE
 70
     3
  9
$SHADEDIF
 70
    70
  9
$TILEMODE
 70
     1
  9
$MAXACTVP
 70
    48
  9
$PLIMCHECK
 70
     0
  9
$PEXTMIN
 10
-0.0001218952091371
 20
-0.0000080246436092
 30
-0.0000000000000053
  9
$PEXTMAX
 10
10.20579523931576
 20
7.7651132149410174
 30
0.0000000000000099
  9
$PLIMMIN
 10
-0.2079161059762549
 20
-0.2079166691697489
  9
$PLIMMAX
 10
10.79208365372785
 20
8.2920830905343603
  9
$UNITMODE
 70
     0
  9
$VISRETAIN
 70
     1
  9
$PLINEGEN
 70
     0
  9
$PSLTSCALE
 70
     1
  0
ENDSEC
  0
SECTION
  2
TABLES
  0
TABLE
  2
VPORT
 70
     1
  0
VPORT
  2
*ACTIVE
 70
     0
 10
0.0
 20
0.0
 11
1.0
 21
1.0
 12
25.031107266568551
 22
29.47749545545318
 13
0.0
 23
0.0
 14
0.5
 24
0.5
 15
0.5
 25
0.5
 16
0.0
 26
0.0
 36
1.0
 17
0.0
 27
0.0
 37
0.0
 40
2.4131436463018181
 41
1.917293233082707
 42
50.0
 43
0.0
 44
0.0
 50
0.0
 51
0.0
 71
     0
 72
   100
 73
     1
 74
     1
 75
     0
 76
     0
 77
     0
 78
     0
  0
ENDTAB
  0
TABLE
  2
LTYPE
 70
     1
  0
LTYPE
  2
CONTINUOUS
 70
     0
  3
Solid line
 72
    65
 73
     0
 40
0.0
  0
ENDTAB
  0
TABLE
  2
LAYER
 70
     6
  0
LAYER
  2
0
 70
     0
 62
     7
  6
CONTINUOUS
  0
LAYER
  2
DEFPOINTS
 70
     0
 62
   252
  6
CONTINUOUS
  0
LAYER
  2
DIM
 70
     0
 62
     1
  6
CONTINUOUS
  0
LAYER
  2
GRID
 70
     0
 62
     2
  6
CONTINUOUS
  0
LAYER
  2
HATCH
 70
     0
 62
     2
  6
CONTINUOUS
  0
LAYER
  2
DETAIL
 70
     0
 62
     1
  6
CONTINUOUS
  0
ENDTAB
  0
TABLE
  2
STYLE
 70
     2
  0
STYLE
  2
STANDARD
 70
     0
 40
0.0
 41
1.0
 50
0.0
 71
     0
 42
0.2
  3
txt
  4

  0
STYLE
  2
STD
 70
     0
 40
0.0
 41
1.0
 50
0.0
 71
     0
 42
0.25
  3
txt
  4

  0
ENDTAB
  0
TABLE
  2
VIEW
 70
     0
  0
ENDTAB
  0
TABLE
  2
UCS
 70
     0
  0
ENDTAB
  0
TABLE
  2
APPID
 70
    22
  0
APPID
  2
ACAD
 70
     0
  0
APPID
  2
RAK
 70
     0
  0
APPID
  2
DCO15
 70
     0
  0
APPID
  2
ABNSLEADERTOOLS
 70
     0
  0
APPID
  2
ACAD_PSEXT
 70
     0
  0
APPID
  2
ACAD_DSTYLE_DIMTEXT_FILL
 70
     0
  0
APPID
  2
ACAECLAYERSTANDARD
 70
     0
  0
APPID
  2
ACDBBLOCKREPETAG
 70
     0
  0
APPID
  2
ACLAYERTOOLS
 70
     0
  0
APPID
  2
ACAD_DSTYLE_DIMJAG
 70
     0
  0
APPID
  2
ACAD_DSTYLE_DIMBREAK
 70
     0
  0
APPID
  2
ACADANNOTATIVE
 70
     0
  0
APPID
  2
ACAD_DSTYLE_DIMTALN
 70
     0
  0
APPID
  2
ACADANNOAV
 70
     0
  0
APPID
  2
ACAD_MLEADERVER
 70
     0
  0
APPID
  2
ACADANNOPO
 70
     0
  0
APPID
  2
ACAD_DSTYLE_DIMRADIAL_EXTENSION
 70
     0
  0
APPID
  2
ACDBDYNAMICBLOCKTRUENAME
 70
     0
  0
APPID
  2
ACDBDYNAMICBLOCKGUID
 70
     0
  0
APPID
  2
ACAUTHENVIRON
 70
     0
  0
APPID
  2
ACDBBLOCKREPBTAG
 70
     0
  0
APPID
  2
ACDBBLOCKARRAYACTIONTAG
 70
     0
  0
ENDTAB
  0
TABLE
  2
DIMSTYLE
 70
     4
  0
DIMSTYLE
  2
STANDARD
 70
     0
  3

  4

  5

  6

  7

 40
1.0
 41
0.18
 42
0.0625
 43
0.38
 44
0.18
 45
0.0
 46
0.0
 47
0.0
 48
0.0
140
0.18
141
0.09
142
0.0
143
25.399999999999999
144
1.0
145
0.0
146
1.0
147
0.09
 71
     0
 72
     0
 73
     1
 74
     1
 75
     0
 76
     0
 77
     0
 78
     0
170
     0
171
     2
172
     0
173
     0
174
     0
175
     0
176
     0
177
     0
178
     0
  0
ENDTAB
  0
ENDSEC
  0
SECTION
  2
BLOCKS
  0
BLOCK
  8
0
  2
$MODEL_SPACE
 70
     0
 10
0.0
 20
0.0
 30
0.0
  3
$MODEL_SPACE
  1

  0
ENDBLK
  5
6DB7F
  8
0
  0
BLOCK
 67
     1
  8
0
  2
$PAPER_SPACE
 70
     0
 10
0.0
 20
0.0
 30
0.0
  3
$PAPER_SPACE
  1

  0
ENDBLK
  5
6DB7B
 67
     1
  8
0
  0
BLOCK
  8
0
  2
*X2
 70
     1
 10
0.0
 20
0.0
 30
0.0
  3
*X2
  1

  0
LINE
  5
349FF
  8
0
 62
     0
 10
1.0798852055934081
 20
1.1573912429841251
 30
0.0
 11
1.0940691080790541
 21
1.17157514546977
 31
0.0
  0
LINE
  5
34A00
  8
0
 62
     0
 10
0.9914968579450914
 20
1.1573912429841251
 30
0.0
 11
1.0940691080790541
 21
1.2599634931180881
 31
0.0
  0
LINE
  5
34A01
  8
0
 62
     0
 10
0.9031085102967731
 20
1.1573912429841251
 30
0.0
 11
1.0940691080790541
 21
1.348351840766405
 31
0.0
  0
LINE
  5
34A02
  8
0
 62
     0
 10
0.8147201626484545
 20
1.1573912429841251
 30
0.0
 11
1.0940691080790541
 21
1.4367401884147251
 31
0.0
  0
LINE
  5
34A03
  8
0
 62
     0
 10
0.7263318150001366
 20
1.1573912429841251
 30
0.0
 11
1.0940691080790541
 21
1.5251285360630431
 31
0.0
  0
LINE
  5
34A04
  8
0
 62
     0
 10
0.6379434673518178
 20
1.1573912429841251
 30
0.0
 11
1.0940691080790541
 21
1.61351688371136
 31
0.0
  0
LINE
  5
34A05
  8
0
 62
     0
 10
0.5940691080790553
 20
1.2019052313596801
 30
0.0
 11
1.0940691080790541
 21
1.7019052313596801
 31
0.0
  0
LINE
  5
34A06
  8
0
 62
     0
 10
0.5940691080790549
 20
1.290293579007999
 30
0.0
 11
1.0940691080790541
 21
1.790293579007999
 31
0.0
  0
LINE
  5
34A07
  8
0
 62
     0
 10
0.5940691080790547
 20
1.3786819266563171
 30
0.0
 11
1.0940691080790541
 21
1.8786819266563159
 31
0.0
  0
LINE
  5
34A08
  8
0
 62
     0
 10
0.5940691080790548
 20
1.467070274304636
 30
0.0
 11
1.0940691080790541
 21
1.9670702743046351
 31
0.0
  0
LINE
  5
34A09
  8
0
 62
     0
 10
0.5940691080790548
 20
1.555458621952954
 30
0.0
 11
1.0940691080790541
 21
2.055458621952952
 31
0.0
  0
LINE
  5
34A0A
  8
0
 62
     0
 10
0.5940691080790546
 20
1.643846969601273
 30
0.0
 11
1.0940691080790541
 21
2.1438469696012721
 31
0.0
  0
LINE
  5
34A0B
  8
0
 62
     0
 10
0.5940691080790546
 20
1.732235317249589
 30
0.0
 11
1.0940691080790541
 21
2.232235317249589
 31
0.0
  0
LINE
  5
34A0C
  8
0
 62
     0
 10
0.5940691080790546
 20
1.8206236648979079
 30
0.0
 11
1.0940691080790541
 21
2.3206236648979082
 31
0.0
  0
LINE
  5
34A0D
  8
0
 62
     0
 10
0.5940691080790546
 20
1.909012012546228
 30
0.0
 11
1.0940691080790541
 21
2.4090120125462282
 31
0.0
  0
LINE
  5
34A0E
  8
0
 62
     0
 10
0.5940691080790546
 20
1.997400360194546
 30
0.0
 11
1.0940691080790541
 21
2.497400360194546
 31
0.0
  0
LINE
  5
34A0F
  8
0
 62
     0
 10
0.5940691080790546
 20
2.085788707842863
 30
0.0
 11
1.0940691080790541
 21
2.585788707842863
 31
0.0
  0
LINE
  5
34A10
  8
0
 62
     0
 10
0.5940691080790546
 20
2.174177055491183
 30
0.0
 11
1.0940691080790541
 21
2.674177055491183
 31
0.0
  0
LINE
  5
34A11
  8
0
 62
     0
 10
0.5940691080790544
 20
2.2625654031394991
 30
0.0
 11
1.0940691080790541
 21
2.7625654031394991
 31
0.0
  0
LINE
  5
34A12
  8
0
 62
     0
 10
0.594069108079054
 20
2.3509537507878191
 30
0.0
 11
1.0940691080790541
 21
2.8509537507878191
 31
0.0
  0
LINE
  5
34A13
  8
0
 62
     0
 10
0.5940691080790546
 20
2.4393420984361391
 30
0.0
 11
1.0940691080790521
 21
2.9393420984361369
 31
0.0
  0
LINE
  5
34A14
  8
0
 62
     0
 10
0.5940691080790546
 20
2.5277304460844561
 30
0.0
 11
1.0940691080790541
 21
3.0277304460844561
 31
0.0
  0
LINE
  5
34A15
  8
0
 62
     0
 10
0.5940691080790546
 20
2.616118793732773
 30
0.0
 11
1.0940691080790521
 21
3.116118793732773
 31
0.0
  0
LINE
  5
34A16
  8
0
 62
     0
 10
0.5940691080790544
 20
2.704507141381093
 30
0.0
 11
1.0940691080790521
 21
3.204507141381093
 31
0.0
  0
LINE
  5
34A17
  8
0
 62
     0
 10
0.5940691080790546
 20
2.7928954890294122
 30
0.0
 11
1.0940691080790521
 21
3.2928954890294122
 31
0.0
  0
LINE
  5
34A18
  8
0
 62
     0
 10
0.5940691080790546
 20
2.8812838366777309
 30
0.0
 11
1.0940691080790521
 21
3.38128383667773
 31
0.0
  0
LINE
  5
34A19
  8
0
 62
     0
 10
0.5940691080790546
 20
2.969672184326047
 30
0.0
 11
1.0940691080790521
 21
3.4696721843260461
 31
0.0
  0
LINE
  5
34A1A
  8
0
 62
     0
 10
0.5940691080790546
 20
3.058060531974367
 30
0.0
 11
1.0817638126583531
 21
3.5457552365536671
 31
0.0
  0
LINE
  5
34A1B
  8
0
 62
     0
 10
0.5940691080790544
 20
3.1464488796226862
 30
0.0
 11
0.993375465010035
 21
3.5457552365536671
 31
0.0
  0
LINE
  5
34A1C
  8
0
 62
     0
 10
0.5940691080790546
 20
3.2348372272710031
 30
0.0
 11
0.9049871173617168
 21
3.5457552365536671
 31
0.0
  0
LINE
  5
34A1D
  8
0
 62
     0
 10
0.594069108079054
 20
3.32322557491932
 30
0.0
 11
0.816598769713398
 21
3.5457552365536671
 31
0.0
  0
LINE
  5
34A1E
  8
0
 62
     0
 10
0.5940691080790546
 20
3.4116139225676401
 30
0.0
 11
0.7282104220650798
 21
3.5457552365536671
 31
0.0
  0
LINE
  5
34A1F
  8
0
 62
     0
 10
0.5940691080790546
 20
3.5000022702159601
 30
0.0
 11
0.6398220744167615
 21
3.5457552365536671
 31
0.0
  0
ENDBLK
  5
34A20
  8
0
  0
BLOCK
  8
0
  2
*D3
 70
     1
 10
0.0
 20
0.0
 30
0.0
  3
*D3
  1

  0
LINE
  5
6D8C4
  8
DIM
 62
     3
 10
24.78004854533927
 20
29.91860819839404
 30
0.0
 11
24.78004854533927
 21
28.753398330650171
 31
0.0
  0
LINE
  5
6D8C5
  8
DIM
 62
     3
 10
25.53004854533927
 20
29.217358198394081
 30
0.0
 11
25.53004854533927
 21
28.753398330650171
 31
0.0
  0
LINE
  5
6D8C6
  8
DIM
 62
     2
 10
24.84254854533927
 20
28.823398330650171
 30
0.0
 11
25.46754854533927
 21
28.823398330650171
 31
0.0
  0
TEXT
  5
6DB46
  8
DIM
 10
25.030000000000001
 20
28.500699999999998
 30
0.0
 40
0.0625
  1
1/2" OR 3/4"
  7
STD
  0
TEXT
  5
6DB47
  8
DIM
 10
25.030000000000001
 20
28.419499999999999
 30
0.0
 40
0.0625
  1
OPTIONAL
  7
STD
  0
SOLID
  5
6D8C8
  8
DIM
 62
     2
 10
24.84254854533927
 20
28.833814997316839
 30
0.0
 11
24.84254854533927
 21
28.8129816639835
 31
0.0
 12
24.78004854533927
 22
28.823398330650171
 32
0.0
 13
24.78004854533927
 23
28.823398330650171
 33
0.0
  0
SOLID
  5
6D8C9
  8
DIM
 62
     2
 10
25.46754854533927
 20
28.833814997316839
 30
0.0
 11
25.46754854533927
 21
28.8129816639835
 31
0.0
 12
25.53004854533927
 22
28.823398330650171
 32
0.0
 13
25.53004854533927
 23
28.823398330650171
 33
0.0
  0
POINT
  5
6D8CA
  8
DEFPOINTS
 62
     0
 10
24.78004854533927
 20
29.95360819839404
 30
0.0
  0
POINT
  5
6D8CB
  8
DEFPOINTS
 62
     0
 10
25.53004854533927
 20
29.252358198394081
 30
0.0
  0
POINT
  5
6D8CC
  8
DEFPOINTS
 62
     0
 10
25.53004854533927
 20
28.823398330650171
 30
0.0
  0
ENDBLK
  5
34DA8
  8
0
  0
BLOCK
  8
0
  2
*D4
 70
     1
 10
0.0
 20
0.0
 30
0.0
  3
*D4
  1

  0
LINE
  5
34E13
  8
DIM
 62
     3
 10
25.53004854533927
 20
29.217358198394081
 30
0.0
 11
25.53004854533927
 21
28.754449504571632
 31
0.0
  0
LINE
  5
34E14
  8
DIM
 62
     3
 10
26.46754854533927
 20
29.217358198394081
 30
0.0
 11
26.46754854533927
 21
28.754449504571632
 31
0.0
  0
LINE
  5
34E15
  8
DIM
 62
     2
 10
25.59254854533927
 20
28.824449504571639
 30
0.0
 11
25.835854309322901
 21
28.824449504571639
 31
0.0
  0
LINE
  5
34E16
  8
DIM
 62
     2
 10
26.40504854533927
 20
28.824449504571639
 30
0.0
 11
26.161742781355638
 21
28.824449504571639
 31
0.0
  0
SOLID
  5
34E17
  8
DIM
 62
     2
 10
25.59254854533927
 20
28.834866171238311
 30
0.0
 11
25.59254854533927
 21
28.814032837904971
 31
0.0
 12
25.53004854533927
 22
28.824449504571639
 32
0.0
 13
25.53004854533927
 23
28.824449504571639
 33
0.0
  0
SOLID
  5
34E18
  8
DIM
 62
     2
 10
26.40504854533927
 20
28.834866171238311
 30
0.0
 11
26.40504854533927
 21
28.814032837904971
 31
0.0
 12
26.46754854533927
 22
28.824449504571639
 32
0.0
 13
26.46754854533927
 23
28.824449504571639
 33
0.0
  0
INSERT
  5
34E19
  8
0
  2
*U5
 10
0.0
 20
0.0
 30
0.0
  0
POINT
  5
34E1A
  8
DEFPOINTS
 62
     0
 10
25.53004854533927
 20
29.252358198394081
 30
0.0
  0
POINT
  5
34E1B
  8
DEFPOINTS
 62
     0
 10
26.46754854533927
 20
29.252358198394081
 30
0.0
  0
POINT
  5
34E1C
  8
DEFPOINTS
 62
     0
 10
26.46754854533927
 20
28.824449504571639
 30
0.0
  0
ENDBLK
  5
34DEF
  8
0
  0
BLOCK
  8
0
  2
*U5
 70
     1
 10
0.0
 20
0.0
 30
0.0
  3
*U5
  1

  0
TEXT
  5
6D8DD
  8
DIM
 10
25.87134714697638
 20
28.793732417259221
 30
0.0
 40
0.0625
  1
15/16"
  7
STD
  0
ENDBLK
  5
6D8DF
  8
0
  0
BLOCK
  8
0
  2
*D6
 70
     1
 10
0.0
 20
0.0
 30
0.0
  3
*D6
  1

  0
LINE
  5
34E1D
  8
DIM
 62
     3
 10
25.720048545339239
 20
30.67235819839393
 30
0.0
 11
27.03909848959837
 21
30.67235819839393
 31
0.0
  0
LINE
  5
34E1E
  8
DIM
 62
     3
 10
26.50254854533927
 20
29.252358198394081
 30
0.0
 11
27.03909848959837
 21
29.252358198394081
 31
0.0
  0
LINE
  5
34E1F
  8
DIM
 62
     2
 10
26.96909848959837
 20
30.60985819839393
 30
0.0
 11
26.96909848959837
 21
30.03967402376917
 31
0.0
  0
LINE
  5
34E20
  8
DIM
 62
     2
 10
26.96909848959837
 20
29.314858198394081
 30
0.0
 11
26.96909848959837
 21
29.885042373018841
 31
0.0
  0
SOLID
  5
34E21
  8
DIM
 62
     2
 10
26.958681822931698
 20
30.60985819839393
 30
0.0
 11
26.979515156265041
 21
30.60985819839393
 31
0.0
 12
26.96909848959837
 22
30.67235819839393
 32
0.0
 13
26.96909848959837
 23
30.67235819839393
 33
0.0
  0
SOLID
  5
34E22
  8
DIM
 62
     2
 10
26.958681822931698
 20
29.314858198394081
 30
0.0
 11
26.979515156265041
 21
29.314858198394081
 31
0.0
 12
26.96909848959837
 22
29.252358198394081
 32
0.0
 13
26.96909848959837
 23
29.252358198394081
 33
0.0
  0
INSERT
  5
34E23
  8
0
  2
*U7
 10
0.0
 20
0.0
 30
0.0
  0
POINT
  5
34E24
  8
DEFPOINTS
 62
     0
 10
25.685048545339232
 20
30.67235819839393
 30
0.0
  0
POINT
  5
34E25
  8
DEFPOINTS
 62
     0
 10
26.46754854533927
 20
29.252358198394081
 30
0.0
  0
POINT
  5
34E26
  8
DEFPOINTS
 62
     0
 10
26.96909848959837
 20
29.252358198394081
 30
0.0
  0
ENDBLK
  5
34DFD
  8
0
  0
BLOCK
  8
0
  2
*U7
 70
     1
 10
0.0
 20
0.0
 30
0.0
  3
*U7
  1

  0
TEXT
  5
6D8E1
  8
DIM
 10
26.829517998466041
 20
29.9316411110816
 30
0.0
 40
0.0625
  1
1 7/16"
  7
STD
  0
ENDBLK
  5
6D8E3
  8
0
  0
BLOCK
  8
0
  2
*U36
 70
     1
 10
0.0
 20
0.0
 30
0.0
  3
*U36
  1

  0
SOLID
  5
6D8CE
  8
DIM
 10
24.71847008391477
 20
30.104646870821512
 30
0.0
 11
24.78004854533927
 21
30.119575033234739
 31
0.0
 12
24.72664021558526
 22
30.08548240562509
 32
0.0
 13
24.72664021558526
 23
30.08548240562509
 33
0.0
  0
POLYLINE
  5
6D8CF
  8
DIM
 66
     1
 10
0.0
 20
0.0
 30
0.0
  0
VERTEX
  5
6DC1A
  8
DIM
 10
24.722555149750001
 20
30.095064638223299
 30
0.0
  0
VERTEX
  5
6DC1B
  8
DIM
 10
24.01750292026837
 20
29.79448909435126
 30
0.0
  0
VERTEX
  5
6DC1C
  8
DIM
 10
23.95500292026837
 20
29.79448909435126
 30
0.0
  0
SEQEND
  5
6DC1D
  8
DIM
  0
ENDBLK
  5
6D8D5
  8
0
  0
BLOCK
  8
0
  2
*U37
 70
     1
 10
0.0
 20
0.0
 30
0.0
  3
*U37
  1

  0
TEXT
  5
6D8D7
  8
DIM
 10
22.958902988481189
 20
29.762130635961089
 30
0.0
 40
0.0625
  1
OPTIONAL NEOPRENE
  7
STD
  0
TEXT
  5
6D8D8
  8
DIM
 10
23.206302374565769
 20
29.65689814391925
 30
0.0
 40
0.0625
  1
SPACER CAN BE
  7
STD
  0
TEXT
  5
6D8D9
  8
DIM
 10
23.235505989845439
 20
29.551665651877411
 30
0.0
 40
0.0625
  1
PRE-ATTACHED
  7
STD
  0
ENDBLK
  5
6D8DB
  8
0
  0
BLOCK
  8
0
  2
*X38
 70
     1
 10
0.0
 20
0.0
 30
0.0
  3
*X38
  1

  0
LINE
  5
6D8E5
  8
0
 62
     0
 10
25.487155326525819
 20
29.95360819839404
 30
0.0
 11
25.487155326525819
 21
29.95360819839404
 31
0.0
  0
LINE
  5
6D8E6
  8
0
 62
     0
 10
25.498203869981861
 20
30.008850915674241
 30
0.0
 11
25.498203869981861
 21
30.008850915674241
 31
0.0
  0
LINE
  5
6D8E7
  8
0
 62
     0
 10
25.476106783069781
 20
29.986753828762161
 30
0.0
 11
25.476106783069781
 21
29.986753828762161
 31
0.0
  0
LINE
  5
6D8E8
  8
0
 62
     0
 10
25.454009696157701
 20
29.964656741850082
 30
0.0
 11
25.454009696157701
 21
29.964656741850082
 31
0.0
  0
LINE
  5
6D8E9
  8
0
 62
     0
 10
25.487155326525819
 20
30.041996546042348
 30
0.0
 11
25.487155326525819
 21
30.041996546042348
 31
0.0
  0
LINE
  5
6D8EA
  8
0
 62
     0
 10
25.465058239613739
 20
30.019899459130279
 30
0.0
 11
25.465058239613739
 21
30.019899459130279
 31
0.0
  0
LINE
  5
6D8EB
  8
0
 62
     0
 10
25.44296115270166
 20
29.997802372218199
 30
0.0
 11
25.44296115270166
 21
29.997802372218199
 31
0.0
  0
LINE
  5
6D8EC
  8
0
 62
     0
 10
25.42086406578958
 20
29.97570528530612
 30
0.0
 11
25.42086406578958
 21
29.97570528530612
 31
0.0
  0
LINE
  5
6D8ED
  8
0
 62
     0
 10
25.3987669788775
 20
29.95360819839404
 30
0.0
 11
25.3987669788775
 21
29.95360819839404
 31
0.0
  0
LINE
  5
6D8EE
  8
0
 62
     0
 10
25.49820386998185
 20
30.09723926332255
 30
0.0
 11
25.49820386998185
 21
30.09723926332255
 31
0.0
  0
LINE
  5
6D8EF
  8
0
 62
     0
 10
25.476106783069771
 20
30.07514217641047
 30
0.0
 11
25.476106783069771
 21
30.07514217641047
 31
0.0
  0
LINE
  5
6D8F0
  8
0
 62
     0
 10
25.454009696157701
 20
30.05304508949839
 30
0.0
 11
25.454009696157701
 21
30.05304508949839
 31
0.0
  0
LINE
  5
6D8F1
  8
0
 62
     0
 10
25.431912609245629
 20
30.030948002586321
 30
0.0
 11
25.431912609245629
 21
30.030948002586321
 31
0.0
  0
LINE
  5
6D8F2
  8
0
 62
     0
 10
25.409815522333538
 20
30.008850915674241
 30
0.0
 11
25.409815522333538
 21
30.008850915674241
 31
0.0
  0
LINE
  5
6D8F3
  8
0
 62
     0
 10
25.387718435421451
 20
29.986753828762161
 30
0.0
 11
25.387718435421451
 21
29.986753828762161
 31
0.0
  0
LINE
  5
6D8F4
  8
0
 62
     0
 10
25.365621348509372
 20
29.964656741850071
 30
0.0
 11
25.365621348509372
 21
29.964656741850071
 31
0.0
  0
LINE
  5
6D8F5
  8
0
 62
     0
 10
25.487155326525819
 20
30.130384893690682
 30
0.0
 11
25.487155326525819
 21
30.130384893690682
 31
0.0
  0
LINE
  5
6D8F6
  8
0
 62
     0
 10
25.465058239613739
 20
30.108287806778598
 30
0.0
 11
25.465058239613739
 21
30.108287806778598
 31
0.0
  0
LINE
  5
6D8F7
  8
0
 62
     0
 10
25.44296115270166
 20
30.086190719866519
 30
0.0
 11
25.44296115270166
 21
30.086190719866519
 31
0.0
  0
LINE
  5
6D8F8
  8
0
 62
     0
 10
25.42086406578958
 20
30.064093632954439
 30
0.0
 11
25.42086406578958
 21
30.064093632954439
 31
0.0
  0
LINE
  5
6D8F9
  8
0
 62
     0
 10
25.3987669788775
 20
30.041996546042359
 30
0.0
 11
25.3987669788775
 21
30.041996546042359
 31
0.0
  0
LINE
  5
6D8FA
  8
0
 62
     0
 10
25.376669891965431
 20
30.019899459130279
 30
0.0
 11
25.376669891965431
 21
30.019899459130279
 31
0.0
  0
LINE
  5
6D8FB
  8
0
 62
     0
 10
25.354572805053341
 20
29.997802372218199
 30
0.0
 11
25.354572805053341
 21
29.997802372218199
 31
0.0
  0
LINE
  5
6D8FC
  8
0
 62
     0
 10
25.332475718141261
 20
29.97570528530612
 30
0.0
 11
25.332475718141261
 21
29.97570528530612
 31
0.0
  0
LINE
  5
6D8FD
  8
0
 62
     0
 10
25.310378631229181
 20
29.95360819839404
 30
0.0
 11
25.310378631229181
 21
29.95360819839404
 31
0.0
  0
LINE
  5
6D8FE
  8
0
 62
     0
 10
25.49820386998185
 20
30.185627610970869
 30
0.0
 11
25.49820386998185
 21
30.185627610970869
 31
0.0
  0
LINE
  5
6D8FF
  8
0
 62
     0
 10
25.476106783069771
 20
30.163530524058789
 30
0.0
 11
25.476106783069771
 21
30.163530524058789
 31
0.0
  0
LINE
  5
6D900
  8
0
 62
     0
 10
25.454009696157691
 20
30.14143343714672
 30
0.0
 11
25.454009696157691
 21
30.14143343714672
 31
0.0
  0
LINE
  5
6D901
  8
0
 62
     0
 10
25.431912609245611
 20
30.11933635023464
 30
0.0
 11
25.431912609245611
 21
30.11933635023464
 31
0.0
  0
LINE
  5
6D902
  8
0
 62
     0
 10
25.409815522333531
 20
30.09723926332255
 30
0.0
 11
25.409815522333531
 21
30.09723926332255
 31
0.0
  0
LINE
  5
6D903
  8
0
 62
     0
 10
25.387718435421451
 20
30.07514217641047
 30
0.0
 11
25.387718435421451
 21
30.07514217641047
 31
0.0
  0
LINE
  5
6D904
  8
0
 62
     0
 10
25.365621348509372
 20
30.05304508949839
 30
0.0
 11
25.365621348509372
 21
30.05304508949839
 31
0.0
  0
LINE
  5
6D905
  8
0
 62
     0
 10
25.343524261597292
 20
30.030948002586321
 30
0.0
 11
25.343524261597292
 21
30.030948002586321
 31
0.0
  0
LINE
  5
6D906
  8
0
 62
     0
 10
25.321427174685208
 20
30.008850915674241
 30
0.0
 11
25.321427174685208
 21
30.008850915674241
 31
0.0
  0
LINE
  5
6D907
  8
0
 62
     0
 10
25.299330087773129
 20
29.986753828762161
 30
0.0
 11
25.299330087773129
 21
29.986753828762161
 31
0.0
  0
LINE
  5
6D908
  8
0
 62
     0
 10
25.277233000861049
 20
29.964656741850071
 30
0.0
 11
25.277233000861049
 21
29.964656741850071
 31
0.0
  0
LINE
  5
6D909
  8
0
 62
     0
 10
25.487155326525819
 20
30.218773241339001
 30
0.0
 11
25.487155326525819
 21
30.218773241339001
 31
0.0
  0
LINE
  5
6D90A
  8
0
 62
     0
 10
25.465058239613739
 20
30.196676154426921
 30
0.0
 11
25.465058239613739
 21
30.196676154426921
 31
0.0
  0
LINE
  5
6D90B
  8
0
 62
     0
 10
25.44296115270166
 20
30.174579067514831
 30
0.0
 11
25.44296115270166
 21
30.174579067514831
 31
0.0
  0
LINE
  5
6D90C
  8
0
 62
     0
 10
25.42086406578958
 20
30.152481980602751
 30
0.0
 11
25.42086406578958
 21
30.152481980602751
 31
0.0
  0
LINE
  5
6D90D
  8
0
 62
     0
 10
25.3987669788775
 20
30.130384893690682
 30
0.0
 11
25.3987669788775
 21
30.130384893690682
 31
0.0
  0
LINE
  5
6D90E
  8
0
 62
     0
 10
25.376669891965431
 20
30.108287806778598
 30
0.0
 11
25.376669891965431
 21
30.108287806778598
 31
0.0
  0
LINE
  5
6D90F
  8
0
 62
     0
 10
25.354572805053341
 20
30.086190719866519
 30
0.0
 11
25.354572805053341
 21
30.086190719866519
 31
0.0
  0
LINE
  5
6D910
  8
0
 62
     0
 10
25.332475718141261
 20
30.064093632954439
 30
0.0
 11
25.332475718141261
 21
30.064093632954439
 31
0.0
  0
LINE
  5
6D911
  8
0
 62
     0
 10
25.310378631229181
 20
30.041996546042348
 30
0.0
 11
25.310378631229181
 21
30.041996546042348
 31
0.0
  0
LINE
  5
6D912
  8
0
 62
     0
 10
25.288281544317101
 20
30.019899459130279
 30
0.0
 11
25.288281544317101
 21
30.019899459130279
 31
0.0
  0
LINE
  5
6D913
  8
0
 62
     0
 10
25.266184457405021
 20
29.997802372218199
 30
0.0
 11
25.266184457405021
 21
29.997802372218199
 31
0.0
  0
LINE
  5
6D914
  8
0
 62
     0
 10
25.244087370492949
 20
29.97570528530612
 30
0.0
 11
25.244087370492949
 21
29.97570528530612
 31
0.0
  0
LINE
  5
6D915
  8
0
 62
     0
 10
25.221990283580858
 20
29.95360819839404
 30
0.0
 11
25.221990283580858
 21
29.95360819839404
 31
0.0
  0
LINE
  5
6D916
  8
0
 62
     0
 10
25.49820386998185
 20
30.274015958619191
 30
0.0
 11
25.49820386998185
 21
30.274015958619191
 31
0.0
  0
LINE
  5
6D917
  8
0
 62
     0
 10
25.476106783069771
 20
30.251918871707112
 30
0.0
 11
25.476106783069771
 21
30.251918871707112
 31
0.0
  0
LINE
  5
6D918
  8
0
 62
     0
 10
25.454009696157701
 20
30.229821784795028
 30
0.0
 11
25.454009696157701
 21
30.229821784795028
 31
0.0
  0
LINE
  5
6D919
  8
0
 62
     0
 10
25.431912609245629
 20
30.207724697882949
 30
0.0
 11
25.431912609245629
 21
30.207724697882949
 31
0.0
  0
LINE
  5
6D91A
  8
0
 62
     0
 10
25.409815522333538
 20
30.185627610970869
 30
0.0
 11
25.409815522333538
 21
30.185627610970869
 31
0.0
  0
LINE
  5
6D91B
  8
0
 62
     0
 10
25.387718435421451
 20
30.163530524058789
 30
0.0
 11
25.387718435421451
 21
30.163530524058789
 31
0.0
  0
LINE
  5
6D91C
  8
0
 62
     0
 10
25.365621348509372
 20
30.14143343714672
 30
0.0
 11
25.365621348509372
 21
30.14143343714672
 31
0.0
  0
LINE
  5
6D91D
  8
0
 62
     0
 10
25.343524261597299
 20
30.119336350234629
 30
0.0
 11
25.343524261597299
 21
30.119336350234629
 31
0.0
  0
LINE
  5
6D91E
  8
0
 62
     0
 10
25.321427174685219
 20
30.09723926332255
 30
0.0
 11
25.321427174685219
 21
30.09723926332255
 31
0.0
  0
LINE
  5
6D91F
  8
0
 62
     0
 10
25.299330087773139
 20
30.07514217641047
 30
0.0
 11
25.299330087773139
 21
30.07514217641047
 31
0.0
  0
LINE
  5
6D920
  8
0
 62
     0
 10
25.27723300086106
 20
30.05304508949839
 30
0.0
 11
25.27723300086106
 21
30.05304508949839
 31
0.0
  0
LINE
  5
6D921
  8
0
 62
     0
 10
25.25513591394898
 20
30.03094800258631
 30
0.0
 11
25.25513591394898
 21
30.03094800258631
 31
0.0
  0
LINE
  5
6D922
  8
0
 62
     0
 10
25.2330388270369
 20
30.00885091567423
 30
0.0
 11
25.2330388270369
 21
30.00885091567423
 31
0.0
  0
LINE
  5
6D923
  8
0
 62
     0
 10
25.21094174012482
 20
29.986753828762151
 30
0.0
 11
25.21094174012482
 21
29.986753828762151
 31
0.0
  0
LINE
  5
6D924
  8
0
 62
     0
 10
25.18884465321274
 20
29.964656741850071
 30
0.0
 11
25.18884465321274
 21
29.964656741850071
 31
0.0
  0
LINE
  5
6D925
  8
0
 62
     0
 10
25.487155326525819
 20
30.307161588987309
 30
0.0
 11
25.487155326525819
 21
30.307161588987309
 31
0.0
  0
LINE
  5
6D926
  8
0
 62
     0
 10
25.465058239613739
 20
30.28506450207523
 30
0.0
 11
25.465058239613739
 21
30.28506450207523
 31
0.0
  0
LINE
  5
6D927
  8
0
 62
     0
 10
25.44296115270166
 20
30.26296741516315
 30
0.0
 11
25.44296115270166
 21
30.26296741516315
 31
0.0
  0
LINE
  5
6D928
  8
0
 62
     0
 10
25.42086406578958
 20
30.240870328251081
 30
0.0
 11
25.42086406578958
 21
30.240870328251081
 31
0.0
  0
LINE
  5
6D929
  8
0
 62
     0
 10
25.398766978877511
 20
30.218773241339001
 30
0.0
 11
25.398766978877511
 21
30.218773241339001
 31
0.0
  0
LINE
  5
6D92A
  8
0
 62
     0
 10
25.376669891965431
 20
30.196676154426921
 30
0.0
 11
25.376669891965431
 21
30.196676154426921
 31
0.0
  0
LINE
  5
6D92B
  8
0
 62
     0
 10
25.354572805053351
 20
30.174579067514831
 30
0.0
 11
25.354572805053351
 21
30.174579067514831
 31
0.0
  0
LINE
  5
6D92C
  8
0
 62
     0
 10
25.332475718141261
 20
30.152481980602751
 30
0.0
 11
25.332475718141261
 21
30.152481980602751
 31
0.0
  0
LINE
  5
6D92D
  8
0
 62
     0
 10
25.310378631229181
 20
30.130384893690682
 30
0.0
 11
25.310378631229181
 21
30.130384893690682
 31
0.0
  0
LINE
  5
6D92E
  8
0
 62
     0
 10
25.288281544317108
 20
30.108287806778598
 30
0.0
 11
25.288281544317108
 21
30.108287806778598
 31
0.0
  0
LINE
  5
6D92F
  8
0
 62
     0
 10
25.266184457405028
 20
30.086190719866519
 30
0.0
 11
25.266184457405028
 21
30.086190719866519
 31
0.0
  0
LINE
  5
6D930
  8
0
 62
     0
 10
25.244087370492949
 20
30.064093632954439
 30
0.0
 11
25.244087370492949
 21
30.064093632954439
 31
0.0
  0
LINE
  5
6D931
  8
0
 62
     0
 10
25.221990283580869
 20
30.041996546042348
 30
0.0
 11
25.221990283580869
 21
30.041996546042348
 31
0.0
  0
LINE
  5
6D932
  8
0
 62
     0
 10
25.199893196668789
 20
30.019899459130279
 30
0.0
 11
25.199893196668789
 21
30.019899459130279
 31
0.0
  0
LINE
  5
6D933
  8
0
 62
     0
 10
25.177796109756709
 20
29.997802372218199
 30
0.0
 11
25.177796109756709
 21
29.997802372218199
 31
0.0
  0
LINE
  5
6D934
  8
0
 62
     0
 10
25.15569902284463
 20
29.97570528530612
 30
0.0
 11
25.15569902284463
 21
29.97570528530612
 31
0.0
  0
LINE
  5
6D935
  8
0
 62
     0
 10
25.13360193593255
 20
29.95360819839404
 30
0.0
 11
25.13360193593255
 21
29.95360819839404
 31
0.0
  0
LINE
  5
6D936
  8
0
 62
     0
 10
25.49820386998185
 20
30.3624043062675
 30
0.0
 11
25.49820386998185
 21
30.3624043062675
 31
0.0
  0
LINE
  5
6D937
  8
0
 62
     0
 10
25.476106783069771
 20
30.34030721935542
 30
0.0
 11
25.476106783069771
 21
30.34030721935542
 31
0.0
  0
LINE
  5
6D938
  8
0
 62
     0
 10
25.454009696157701
 20
30.318210132443351
 30
0.0
 11
25.454009696157701
 21
30.318210132443351
 31
0.0
  0
LINE
  5
6D939
  8
0
 62
     0
 10
25.431912609245629
 20
30.296113045531271
 30
0.0
 11
25.431912609245629
 21
30.296113045531271
 31
0.0
  0
LINE
  5
6D93A
  8
0
 62
     0
 10
25.409815522333538
 20
30.274015958619191
 30
0.0
 11
25.409815522333538
 21
30.274015958619191
 31
0.0
  0
LINE
  5
6D93B
  8
0
 62
     0
 10
25.387718435421451
 20
30.251918871707112
 30
0.0
 11
25.387718435421451
 21
30.251918871707112
 31
0.0
  0
LINE
  5
6D93C
  8
0
 62
     0
 10
25.365621348509372
 20
30.229821784795028
 30
0.0
 11
25.365621348509372
 21
30.229821784795028
 31
0.0
  0
LINE
  5
6D93D
  8
0
 62
     0
 10
25.343524261597299
 20
30.207724697882949
 30
0.0
 11
25.343524261597299
 21
30.207724697882949
 31
0.0
  0
LINE
  5
6D93E
  8
0
 62
     0
 10
25.321427174685219
 20
30.185627610970869
 30
0.0
 11
25.321427174685219
 21
30.185627610970869
 31
0.0
  0
LINE
  5
6D93F
  8
0
 62
     0
 10
25.299330087773139
 20
30.163530524058789
 30
0.0
 11
25.299330087773139
 21
30.163530524058789
 31
0.0
  0
LINE
  5
6D940
  8
0
 62
     0
 10
25.27723300086106
 20
30.14143343714672
 30
0.0
 11
25.27723300086106
 21
30.14143343714672
 31
0.0
  0
LINE
  5
6D941
  8
0
 62
     0
 10
25.25513591394898
 20
30.119336350234629
 30
0.0
 11
25.25513591394898
 21
30.119336350234629
 31
0.0
  0
LINE
  5
6D942
  8
0
 62
     0
 10
25.2330388270369
 20
30.09723926332255
 30
0.0
 11
25.2330388270369
 21
30.09723926332255
 31
0.0
  0
LINE
  5
6D943
  8
0
 62
     0
 10
25.21094174012482
 20
30.07514217641047
 30
0.0
 11
25.21094174012482
 21
30.07514217641047
 31
0.0
  0
LINE
  5
6D944
  8
0
 62
     0
 10
25.18884465321274
 20
30.05304508949839
 30
0.0
 11
25.18884465321274
 21
30.05304508949839
 31
0.0
  0
LINE
  5
6D945
  8
0
 62
     0
 10
25.166747566300661
 20
30.03094800258631
 30
0.0
 11
25.166747566300661
 21
30.03094800258631
 31
0.0
  0
LINE
  5
6D946
  8
0
 62
     0
 10
25.144650479388581
 20
30.00885091567423
 30
0.0
 11
25.144650479388581
 21
30.00885091567423
 31
0.0
  0
LINE
  5
6D947
  8
0
 62
     0
 10
25.122553392476501
 20
29.986753828762151
 30
0.0
 11
25.122553392476501
 21
29.986753828762151
 31
0.0
  0
LINE
  5
6D948
  8
0
 62
     0
 10
25.100456305564421
 20
29.964656741850071
 30
0.0
 11
25.100456305564421
 21
29.964656741850071
 31
0.0
  0
LINE
  5
6D949
  8
0
 62
     0
 10
25.42086406578958
 20
30.329258675899389
 30
0.0
 11
25.42086406578958
 21
30.329258675899389
 31
0.0
  0
LINE
  5
6D94A
  8
0
 62
     0
 10
25.487155326525819
 20
30.395549936635629
 30
0.0
 11
25.487155326525819
 21
30.395549936635629
 31
0.0
  0
LINE
  5
6D94B
  8
0
 62
     0
 10
25.465058239613739
 20
30.373452849723549
 30
0.0
 11
25.465058239613739
 21
30.373452849723549
 31
0.0
  0
LINE
  5
6D94C
  8
0
 62
     0
 10
25.44296115270166
 20
30.351355762811469
 30
0.0
 11
25.44296115270166
 21
30.351355762811469
 31
0.0
  0
LINE
  5
6D94D
  8
0
 62
     0
 10
25.398766978877511
 20
30.307161588987309
 30
0.0
 11
25.398766978877511
 21
30.307161588987309
 31
0.0
  0
LINE
  5
6D94E
  8
0
 62
     0
 10
25.376669891965431
 20
30.28506450207523
 30
0.0
 11
25.376669891965431
 21
30.28506450207523
 31
0.0
  0
LINE
  5
6D94F
  8
0
 62
     0
 10
25.354572805053351
 20
30.26296741516315
 30
0.0
 11
25.354572805053351
 21
30.26296741516315
 31
0.0
  0
LINE
  5
6D950
  8
0
 62
     0
 10
25.332475718141261
 20
30.240870328251081
 30
0.0
 11
25.332475718141261
 21
30.240870328251081
 31
0.0
  0
LINE
  5
6D951
  8
0
 62
     0
 10
25.310378631229181
 20
30.218773241339001
 30
0.0
 11
25.310378631229181
 21
30.218773241339001
 31
0.0
  0
LINE
  5
6D952
  8
0
 62
     0
 10
25.288281544317108
 20
30.196676154426921
 30
0.0
 11
25.288281544317108
 21
30.196676154426921
 31
0.0
  0
LINE
  5
6D953
  8
0
 62
     0
 10
25.266184457405028
 20
30.174579067514831
 30
0.0
 11
25.266184457405028
 21
30.174579067514831
 31
0.0
  0
LINE
  5
6D954
  8
0
 62
     0
 10
25.244087370492949
 20
30.152481980602751
 30
0.0
 11
25.244087370492949
 21
30.152481980602751
 31
0.0
  0
LINE
  5
6D955
  8
0
 62
     0
 10
25.221990283580869
 20
30.130384893690682
 30
0.0
 11
25.221990283580869
 21
30.130384893690682
 31
0.0
  0
LINE
  5
6D956
  8
0
 62
     0
 10
25.199893196668789
 20
30.108287806778598
 30
0.0
 11
25.199893196668789
 21
30.108287806778598
 31
0.0
  0
LINE
  5
6D957
  8
0
 62
     0
 10
25.177796109756709
 20
30.086190719866519
 30
0.0
 11
25.177796109756709
 21
30.086190719866519
 31
0.0
  0
LINE
  5
6D958
  8
0
 62
     0
 10
25.15569902284463
 20
30.064093632954439
 30
0.0
 11
25.15569902284463
 21
30.064093632954439
 31
0.0
  0
LINE
  5
6D959
  8
0
 62
     0
 10
25.13360193593255
 20
30.041996546042348
 30
0.0
 11
25.13360193593255
 21
30.041996546042348
 31
0.0
  0
LINE
  5
6D95A
  8
0
 62
     0
 10
25.11150484902047
 20
30.019899459130279
 30
0.0
 11
25.11150484902047
 21
30.019899459130279
 31
0.0
  0
LINE
  5
6D95B
  8
0
 62
     0
 10
25.08940776210839
 20
29.997802372218199
 30
0.0
 11
25.08940776210839
 21
29.997802372218199
 31
0.0
  0
LINE
  5
6D95C
  8
0
 62
     0
 10
25.06731067519631
 20
29.97570528530612
 30
0.0
 11
25.06731067519631
 21
29.97570528530612
 31
0.0
  0
LINE
  5
6D95D
  8
0
 62
     0
 10
25.045213588284231
 20
29.95360819839404
 30
0.0
 11
25.045213588284231
 21
29.95360819839404
 31
0.0
  0
LINE
  5
6D95E
  8
0
 62
     0
 10
25.454009696157701
 20
30.40659848009167
 30
0.0
 11
25.454009696157701
 21
30.40659848009167
 31
0.0
  0
LINE
  5
6D95F
  8
0
 62
     0
 10
25.431912609245629
 20
30.38450139317959
 30
0.0
 11
25.431912609245629
 21
30.38450139317959
 31
0.0
  0
LINE
  5
6D960
  8
0
 62
     0
 10
25.409815522333538
 20
30.362404306267511
 30
0.0
 11
25.409815522333538
 21
30.362404306267511
 31
0.0
  0
LINE
  5
6D961
  8
0
 62
     0
 10
25.387718435421451
 20
30.340307219355431
 30
0.0
 11
25.387718435421451
 21
30.340307219355431
 31
0.0
  0
LINE
  5
6D962
  8
0
 62
     0
 10
25.498203869981861
 20
30.45079265391584
 30
0.0
 11
25.498203869981861
 21
30.45079265391584
 31
0.0
  0
LINE
  5
6D963
  8
0
 62
     0
 10
25.476106783069781
 20
30.428695567003761
 30
0.0
 11
25.476106783069781
 21
30.428695567003761
 31
0.0
  0
LINE
  5
6D964
  8
0
 62
     0
 10
25.365621348509372
 20
30.318210132443362
 30
0.0
 11
25.365621348509372
 21
30.318210132443362
 31
0.0
  0
LINE
  5
6D965
  8
0
 62
     0
 10
25.343524261597299
 20
30.296113045531278
 30
0.0
 11
25.343524261597299
 21
30.296113045531278
 31
0.0
  0
LINE
  5
6D966
  8
0
 62
     0
 10
25.321427174685219
 20
30.274015958619199
 30
0.0
 11
25.321427174685219
 21
30.274015958619199
 31
0.0
  0
LINE
  5
6D967
  8
0
 62
     0
 10
25.29933008777315
 20
30.251918871707112
 30
0.0
 11
25.29933008777315
 21
30.251918871707112
 31
0.0
  0
LINE
  5
6D968
  8
0
 62
     0
 10
25.27723300086107
 20
30.229821784795039
 30
0.0
 11
25.27723300086107
 21
30.229821784795039
 31
0.0
  0
LINE
  5
6D969
  8
0
 62
     0
 10
25.25513591394898
 20
30.207724697882959
 30
0.0
 11
25.25513591394898
 21
30.207724697882959
 31
0.0
  0
LINE
  5
6D96A
  8
0
 62
     0
 10
25.2330388270369
 20
30.185627610970879
 30
0.0
 11
25.2330388270369
 21
30.185627610970879
 31
0.0
  0
LINE
  5
6D96B
  8
0
 62
     0
 10
25.21094174012482
 20
30.1635305240588
 30
0.0
 11
25.21094174012482
 21
30.1635305240588
 31
0.0
  0
LINE
  5
6D96C
  8
0
 62
     0
 10
25.188844653212751
 20
30.14143343714672
 30
0.0
 11
25.188844653212751
 21
30.14143343714672
 31
0.0
  0
LINE
  5
6D96D
  8
0
 62
     0
 10
25.166747566300678
 20
30.11933635023464
 30
0.0
 11
25.166747566300678
 21
30.11933635023464
 31
0.0
  0
LINE
  5
6D96E
  8
0
 62
     0
 10
25.144650479388591
 20
30.09723926332256
 30
0.0
 11
25.144650479388591
 21
30.09723926332256
 31
0.0
  0
LINE
  5
6D96F
  8
0
 62
     0
 10
25.122553392476501
 20
30.07514217641048
 30
0.0
 11
25.122553392476501
 21
30.07514217641048
 31
0.0
  0
LINE
  5
6D970
  8
0
 62
     0
 10
25.100456305564421
 20
30.053045089498401
 30
0.0
 11
25.100456305564421
 21
30.053045089498401
 31
0.0
  0
LINE
  5
6D971
  8
0
 62
     0
 10
25.078359218652349
 20
30.030948002586321
 30
0.0
 11
25.078359218652349
 21
30.030948002586321
 31
0.0
  0
LINE
  5
6D972
  8
0
 62
     0
 10
25.056262131740269
 20
30.008850915674241
 30
0.0
 11
25.056262131740269
 21
30.008850915674241
 31
0.0
  0
LINE
  5
6D973
  8
0
 62
     0
 10
25.0341650448282
 20
29.986753828762161
 30
0.0
 11
25.0341650448282
 21
29.986753828762161
 31
0.0
  0
LINE
  5
6D974
  8
0
 62
     0
 10
25.012067957916109
 20
29.964656741850082
 30
0.0
 11
25.012067957916109
 21
29.964656741850082
 31
0.0
  0
LINE
  5
6D975
  8
0
 62
     0
 10
25.354572805053341
 20
30.35135576281148
 30
0.0
 11
25.354572805053341
 21
30.35135576281148
 31
0.0
  0
LINE
  5
6D976
  8
0
 62
     0
 10
25.3987669788775
 20
30.395549936635629
 30
0.0
 11
25.3987669788775
 21
30.395549936635629
 31
0.0
  0
LINE
  5
6D977
  8
0
 62
     0
 10
25.376669891965431
 20
30.373452849723549
 30
0.0
 11
25.376669891965431
 21
30.373452849723549
 31
0.0
  0
LINE
  5
6D978
  8
0
 62
     0
 10
25.487155326525819
 20
30.483938284283951
 30
0.0
 11
25.487155326525819
 21
30.483938284283951
 31
0.0
  0
LINE
  5
6D979
  8
0
 62
     0
 10
25.465058239613739
 20
30.461841197371871
 30
0.0
 11
25.465058239613739
 21
30.461841197371871
 31
0.0
  0
LINE
  5
6D97A
  8
0
 62
     0
 10
25.44296115270166
 20
30.439744110459792
 30
0.0
 11
25.44296115270166
 21
30.439744110459792
 31
0.0
  0
LINE
  5
6D97B
  8
0
 62
     0
 10
25.42086406578958
 20
30.417647023547708
 30
0.0
 11
25.42086406578958
 21
30.417647023547708
 31
0.0
  0
LINE
  5
6D97C
  8
0
 62
     0
 10
25.332475718141261
 20
30.3292586758994
 30
0.0
 11
25.332475718141261
 21
30.3292586758994
 31
0.0
  0
LINE
  5
6D97D
  8
0
 62
     0
 10
25.310378631229181
 20
30.30716158898732
 30
0.0
 11
25.310378631229181
 21
30.30716158898732
 31
0.0
  0
LINE
  5
6D97E
  8
0
 62
     0
 10
25.288281544317108
 20
30.28506450207524
 30
0.0
 11
25.288281544317108
 21
30.28506450207524
 31
0.0
  0
LINE
  5
6D97F
  8
0
 62
     0
 10
25.266184457405028
 20
30.26296741516316
 30
0.0
 11
25.266184457405028
 21
30.26296741516316
 31
0.0
  0
LINE
  5
6D980
  8
0
 62
     0
 10
25.244087370492949
 20
30.240870328251081
 30
0.0
 11
25.244087370492949
 21
30.240870328251081
 31
0.0
  0
LINE
  5
6D981
  8
0
 62
     0
 10
25.221990283580869
 20
30.218773241339001
 30
0.0
 11
25.221990283580869
 21
30.218773241339001
 31
0.0
  0
LINE
  5
6D982
  8
0
 62
     0
 10
25.199893196668789
 20
30.196676154426921
 30
0.0
 11
25.199893196668789
 21
30.196676154426921
 31
0.0
  0
LINE
  5
6D983
  8
0
 62
     0
 10
25.177796109756709
 20
30.174579067514841
 30
0.0
 11
25.177796109756709
 21
30.174579067514841
 31
0.0
  0
LINE
  5
6D984
  8
0
 62
     0
 10
25.15569902284463
 20
30.152481980602762
 30
0.0
 11
25.15569902284463
 21
30.152481980602762
 31
0.0
  0
LINE
  5
6D985
  8
0
 62
     0
 10
25.13360193593255
 20
30.130384893690682
 30
0.0
 11
25.13360193593255
 21
30.130384893690682
 31
0.0
  0
LINE
  5
6D986
  8
0
 62
     0
 10
25.11150484902047
 20
30.108287806778598
 30
0.0
 11
25.11150484902047
 21
30.108287806778598
 31
0.0
  0
LINE
  5
6D987
  8
0
 62
     0
 10
25.08940776210839
 20
30.086190719866519
 30
0.0
 11
25.08940776210839
 21
30.086190719866519
 31
0.0
  0
LINE
  5
6D988
  8
0
 62
     0
 10
25.06731067519631
 20
30.064093632954439
 30
0.0
 11
25.06731067519631
 21
30.064093632954439
 31
0.0
  0
LINE
  5
6D989
  8
0
 62
     0
 10
25.045213588284231
 20
30.041996546042359
 30
0.0
 11
25.045213588284231
 21
30.041996546042359
 31
0.0
  0
LINE
  5
6D98A
  8
0
 62
     0
 10
25.023116501372151
 20
30.019899459130279
 30
0.0
 11
25.023116501372151
 21
30.019899459130279
 31
0.0
  0
LINE
  5
6D98B
  8
0
 62
     0
 10
25.001019414460071
 20
29.997802372218199
 30
0.0
 11
25.001019414460071
 21
29.997802372218199
 31
0.0
  0
LINE
  5
6D98C
  8
0
 62
     0
 10
24.978922327547991
 20
29.97570528530612
 30
0.0
 11
24.978922327547991
 21
29.97570528530612
 31
0.0
  0
LINE
  5
6D98D
  8
0
 62
     0
 10
24.956825240635911
 20
29.95360819839404
 30
0.0
 11
24.956825240635911
 21
29.95360819839404
 31
0.0
  0
LINE
  5
6D98E
  8
0
 62
     0
 10
25.343524261597299
 20
30.38450139317959
 30
0.0
 11
25.343524261597299
 21
30.38450139317959
 31
0.0
  0
LINE
  5
6D98F
  8
0
 62
     0
 10
25.321427174685219
 20
30.362404306267511
 30
0.0
 11
25.321427174685219
 21
30.362404306267511
 31
0.0
  0
LINE
  5
6D990
  8
0
 62
     0
 10
25.299330087773139
 20
30.340307219355431
 30
0.0
 11
25.299330087773139
 21
30.340307219355431
 31
0.0
  0
LINE
  5
6D991
  8
0
 62
     0
 10
25.498203869981861
 20
30.539181001564149
 30
0.0
 11
25.498203869981861
 21
30.539181001564149
 31
0.0
  0
LINE
  5
6D992
  8
0
 62
     0
 10
25.476106783069781
 20
30.517083914652069
 30
0.0
 11
25.476106783069781
 21
30.517083914652069
 31
0.0
  0
LINE
  5
6D993
  8
0
 62
     0
 10
25.454009696157701
 20
30.494986827739989
 30
0.0
 11
25.454009696157701
 21
30.494986827739989
 31
0.0
  0
LINE
  5
6D994
  8
0
 62
     0
 10
25.431912609245629
 20
30.47288974082791
 30
0.0
 11
25.431912609245629
 21
30.47288974082791
 31
0.0
  0
LINE
  5
6D995
  8
0
 62
     0
 10
25.409815522333538
 20
30.45079265391584
 30
0.0
 11
25.409815522333538
 21
30.45079265391584
 31
0.0
  0
LINE
  5
6D996
  8
0
 62
     0
 10
25.387718435421451
 20
30.428695567003761
 30
0.0
 11
25.387718435421451
 21
30.428695567003761
 31
0.0
  0
LINE
  5
6D997
  8
0
 62
     0
 10
25.365621348509372
 20
30.40659848009167
 30
0.0
 11
25.365621348509372
 21
30.40659848009167
 31
0.0
  0
LINE
  5
6D998
  8
0
 62
     0
 10
25.27723300086107
 20
30.318210132443362
 30
0.0
 11
25.27723300086107
 21
30.318210132443362
 31
0.0
  0
LINE
  5
6D999
  8
0
 62
     0
 10
25.25513591394898
 20
30.296113045531278
 30
0.0
 11
25.25513591394898
 21
30.296113045531278
 31
0.0
  0
LINE
  5
6D99A
  8
0
 62
     0
 10
25.2330388270369
 20
30.274015958619199
 30
0.0
 11
25.2330388270369
 21
30.274015958619199
 31
0.0
  0
LINE
  5
6D99B
  8
0
 62
     0
 10
25.21094174012482
 20
30.251918871707112
 30
0.0
 11
25.21094174012482
 21
30.251918871707112
 31
0.0
  0
LINE
  5
6D99C
  8
0
 62
     0
 10
25.188844653212751
 20
30.229821784795039
 30
0.0
 11
25.188844653212751
 21
30.229821784795039
 31
0.0
  0
LINE
  5
6D99D
  8
0
 62
     0
 10
25.166747566300678
 20
30.207724697882959
 30
0.0
 11
25.166747566300678
 21
30.207724697882959
 31
0.0
  0
LINE
  5
6D99E
  8
0
 62
     0
 10
25.144650479388591
 20
30.185627610970879
 30
0.0
 11
25.144650479388591
 21
30.185627610970879
 31
0.0
  0
LINE
  5
6D99F
  8
0
 62
     0
 10
25.122553392476501
 20
30.1635305240588
 30
0.0
 11
25.122553392476501
 21
30.1635305240588
 31
0.0
  0
LINE
  5
6D9A0
  8
0
 62
     0
 10
25.100456305564421
 20
30.14143343714672
 30
0.0
 11
25.100456305564421
 21
30.14143343714672
 31
0.0
  0
LINE
  5
6D9A1
  8
0
 62
     0
 10
25.078359218652349
 20
30.11933635023464
 30
0.0
 11
25.078359218652349
 21
30.11933635023464
 31
0.0
  0
LINE
  5
6D9A2
  8
0
 62
     0
 10
25.056262131740269
 20
30.09723926332256
 30
0.0
 11
25.056262131740269
 21
30.09723926332256
 31
0.0
  0
LINE
  5
6D9A3
  8
0
 62
     0
 10
25.0341650448282
 20
30.07514217641048
 30
0.0
 11
25.0341650448282
 21
30.07514217641048
 31
0.0
  0
LINE
  5
6D9A4
  8
0
 62
     0
 10
25.012067957916109
 20
30.053045089498401
 30
0.0
 11
25.012067957916109
 21
30.053045089498401
 31
0.0
  0
LINE
  5
6D9A5
  8
0
 62
     0
 10
24.989970871004029
 20
30.030948002586321
 30
0.0
 11
24.989970871004029
 21
30.030948002586321
 31
0.0
  0
LINE
  5
6D9A6
  8
0
 62
     0
 10
24.96787378409195
 20
30.008850915674241
 30
0.0
 11
24.96787378409195
 21
30.008850915674241
 31
0.0
  0
LINE
  5
6D9A7
  8
0
 62
     0
 10
24.94577669717987
 20
29.986753828762161
 30
0.0
 11
24.94577669717987
 21
29.986753828762161
 31
0.0
  0
LINE
  5
6D9A8
  8
0
 62
     0
 10
24.92367961026779
 20
29.964656741850082
 30
0.0
 11
24.92367961026779
 21
29.964656741850082
 31
0.0
  0
LINE
  5
6D9A9
  8
0
 62
     0
 10
25.310378631229181
 20
30.395549936635629
 30
0.0
 11
25.310378631229181
 21
30.395549936635629
 31
0.0
  0
LINE
  5
6D9AA
  8
0
 62
     0
 10
25.288281544317101
 20
30.373452849723549
 30
0.0
 11
25.288281544317101
 21
30.373452849723549
 31
0.0
  0
LINE
  5
6D9AB
  8
0
 62
     0
 10
25.266184457405021
 20
30.35135576281148
 30
0.0
 11
25.266184457405021
 21
30.35135576281148
 31
0.0
  0
LINE
  5
6D9AC
  8
0
 62
     0
 10
25.487155326525819
 20
30.57232663193227
 30
0.0
 11
25.487155326525819
 21
30.57232663193227
 31
0.0
  0
LINE
  5
6D9AD
  8
0
 62
     0
 10
25.465058239613739
 20
30.550229545020191
 30
0.0
 11
25.465058239613739
 21
30.550229545020191
 31
0.0
  0
LINE
  5
6D9AE
  8
0
 62
     0
 10
25.44296115270166
 20
30.528132458108111
 30
0.0
 11
25.44296115270166
 21
30.528132458108111
 31
0.0
  0
LINE
  5
6D9AF
  8
0
 62
     0
 10
25.42086406578958
 20
30.506035371196031
 30
0.0
 11
25.42086406578958
 21
30.506035371196031
 31
0.0
  0
LINE
  5
6D9B0
  8
0
 62
     0
 10
25.3987669788775
 20
30.483938284283951
 30
0.0
 11
25.3987669788775
 21
30.483938284283951
 31
0.0
  0
LINE
  5
6D9B1
  8
0
 62
     0
 10
25.376669891965431
 20
30.461841197371871
 30
0.0
 11
25.376669891965431
 21
30.461841197371871
 31
0.0
  0
LINE
  5
6D9B2
  8
0
 62
     0
 10
25.354572805053341
 20
30.439744110459792
 30
0.0
 11
25.354572805053341
 21
30.439744110459792
 31
0.0
  0
LINE
  5
6D9B3
  8
0
 62
     0
 10
25.332475718141261
 20
30.417647023547708
 30
0.0
 11
25.332475718141261
 21
30.417647023547708
 31
0.0
  0
LINE
  5
6D9B4
  8
0
 62
     0
 10
25.244087370492949
 20
30.3292586758994
 30
0.0
 11
25.244087370492949
 21
30.3292586758994
 31
0.0
  0
LINE
  5
6D9B5
  8
0
 62
     0
 10
25.221990283580869
 20
30.30716158898732
 30
0.0
 11
25.221990283580869
 21
30.30716158898732
 31
0.0
  0
LINE
  5
6D9B6
  8
0
 62
     0
 10
25.199893196668789
 20
30.28506450207524
 30
0.0
 11
25.199893196668789
 21
30.28506450207524
 31
0.0
  0
LINE
  5
6D9B7
  8
0
 62
     0
 10
25.177796109756709
 20
30.26296741516316
 30
0.0
 11
25.177796109756709
 21
30.26296741516316
 31
0.0
  0
LINE
  5
6D9B8
  8
0
 62
     0
 10
25.15569902284463
 20
30.240870328251081
 30
0.0
 11
25.15569902284463
 21
30.240870328251081
 31
0.0
  0
LINE
  5
6D9B9
  8
0
 62
     0
 10
25.13360193593255
 20
30.218773241339001
 30
0.0
 11
25.13360193593255
 21
30.218773241339001
 31
0.0
  0
LINE
  5
6D9BA
  8
0
 62
     0
 10
25.11150484902047
 20
30.196676154426921
 30
0.0
 11
25.11150484902047
 21
30.196676154426921
 31
0.0
  0
LINE
  5
6D9BB
  8
0
 62
     0
 10
25.08940776210839
 20
30.174579067514841
 30
0.0
 11
25.08940776210839
 21
30.174579067514841
 31
0.0
  0
LINE
  5
6D9BC
  8
0
 62
     0
 10
25.06731067519631
 20
30.152481980602762
 30
0.0
 11
25.06731067519631
 21
30.152481980602762
 31
0.0
  0
LINE
  5
6D9BD
  8
0
 62
     0
 10
25.045213588284231
 20
30.130384893690682
 30
0.0
 11
25.045213588284231
 21
30.130384893690682
 31
0.0
  0
LINE
  5
6D9BE
  8
0
 62
     0
 10
25.023116501372151
 20
30.108287806778598
 30
0.0
 11
25.023116501372151
 21
30.108287806778598
 31
0.0
  0
LINE
  5
6D9BF
  8
0
 62
     0
 10
25.001019414460071
 20
30.086190719866519
 30
0.0
 11
25.001019414460071
 21
30.086190719866519
 31
0.0
  0
LINE
  5
6D9C0
  8
0
 62
     0
 10
24.978922327547991
 20
30.064093632954439
 30
0.0
 11
24.978922327547991
 21
30.064093632954439
 31
0.0
  0
LINE
  5
6D9C1
  8
0
 62
     0
 10
24.956825240635911
 20
30.041996546042359
 30
0.0
 11
24.956825240635911
 21
30.041996546042359
 31
0.0
  0
LINE
  5
6D9C2
  8
0
 62
     0
 10
24.934728153723832
 20
30.019899459130279
 30
0.0
 11
24.934728153723832
 21
30.019899459130279
 31
0.0
  0
LINE
  5
6D9C3
  8
0
 62
     0
 10
24.912631066811748
 20
29.997802372218199
 30
0.0
 11
24.912631066811748
 21
29.997802372218199
 31
0.0
  0
LINE
  5
6D9C4
  8
0
 62
     0
 10
24.890533979899669
 20
29.97570528530612
 30
0.0
 11
24.890533979899669
 21
29.97570528530612
 31
0.0
  0
LINE
  5
6D9C5
  8
0
 62
     0
 10
25.2330388270369
 20
30.362404306267511
 30
0.0
 11
25.2330388270369
 21
30.362404306267511
 31
0.0
  0
LINE
  5
6D9C6
  8
0
 62
     0
 10
25.25513591394898
 20
30.38450139317959
 30
0.0
 11
25.25513591394898
 21
30.38450139317959
 31
0.0
  0
LINE
  5
6D9C7
  8
0
 62
     0
 10
25.498203869981861
 20
30.627569349212472
 30
0.0
 11
25.498203869981861
 21
30.627569349212472
 31
0.0
  0
LINE
  5
6D9C8
  8
0
 62
     0
 10
25.476106783069781
 20
30.605472262300388
 30
0.0
 11
25.476106783069781
 21
30.605472262300388
 31
0.0
  0
LINE
  5
6D9C9
  8
0
 62
     0
 10
25.454009696157701
 20
30.583375175388309
 30
0.0
 11
25.454009696157701
 21
30.583375175388309
 31
0.0
  0
LINE
  5
6D9CA
  8
0
 62
     0
 10
25.431912609245629
 20
30.561278088476229
 30
0.0
 11
25.431912609245629
 21
30.561278088476229
 31
0.0
  0
LINE
  5
6D9CB
  8
0
 62
     0
 10
25.409815522333538
 20
30.539181001564149
 30
0.0
 11
25.409815522333538
 21
30.539181001564149
 31
0.0
  0
LINE
  5
6D9CC
  8
0
 62
     0
 10
25.387718435421451
 20
30.517083914652069
 30
0.0
 11
25.387718435421451
 21
30.517083914652069
 31
0.0
  0
LINE
  5
6D9CD
  8
0
 62
     0
 10
25.365621348509372
 20
30.494986827739989
 30
0.0
 11
25.365621348509372
 21
30.494986827739989
 31
0.0
  0
LINE
  5
6D9CE
  8
0
 62
     0
 10
25.343524261597299
 20
30.47288974082791
 30
0.0
 11
25.343524261597299
 21
30.47288974082791
 31
0.0
  0
LINE
  5
6D9CF
  8
0
 62
     0
 10
25.321427174685219
 20
30.45079265391583
 30
0.0
 11
25.321427174685219
 21
30.45079265391583
 31
0.0
  0
LINE
  5
6D9D0
  8
0
 62
     0
 10
25.299330087773139
 20
30.42869556700375
 30
0.0
 11
25.299330087773139
 21
30.42869556700375
 31
0.0
  0
LINE
  5
6D9D1
  8
0
 62
     0
 10
25.27723300086106
 20
30.40659848009167
 30
0.0
 11
25.27723300086106
 21
30.40659848009167
 31
0.0
  0
LINE
  5
6D9D2
  8
0
 62
     0
 10
25.188844653212751
 20
30.318210132443362
 30
0.0
 11
25.188844653212751
 21
30.318210132443362
 31
0.0
  0
LINE
  5
6D9D3
  8
0
 62
     0
 10
25.166747566300678
 20
30.296113045531278
 30
0.0
 11
25.166747566300678
 21
30.296113045531278
 31
0.0
  0
LINE
  5
6D9D4
  8
0
 62
     0
 10
25.144650479388591
 20
30.274015958619199
 30
0.0
 11
25.144650479388591
 21
30.274015958619199
 31
0.0
  0
LINE
  5
6D9D5
  8
0
 62
     0
 10
25.122553392476501
 20
30.251918871707112
 30
0.0
 11
25.122553392476501
 21
30.251918871707112
 31
0.0
  0
LINE
  5
6D9D6
  8
0
 62
     0
 10
25.100456305564421
 20
30.229821784795039
 30
0.0
 11
25.100456305564421
 21
30.229821784795039
 31
0.0
  0
LINE
  5
6D9D7
  8
0
 62
     0
 10
25.078359218652349
 20
30.207724697882959
 30
0.0
 11
25.078359218652349
 21
30.207724697882959
 31
0.0
  0
LINE
  5
6D9D8
  8
0
 62
     0
 10
25.056262131740269
 20
30.185627610970879
 30
0.0
 11
25.056262131740269
 21
30.185627610970879
 31
0.0
  0
LINE
  5
6D9D9
  8
0
 62
     0
 10
25.0341650448282
 20
30.1635305240588
 30
0.0
 11
25.0341650448282
 21
30.1635305240588
 31
0.0
  0
LINE
  5
6D9DA
  8
0
 62
     0
 10
25.012067957916109
 20
30.14143343714672
 30
0.0
 11
25.012067957916109
 21
30.14143343714672
 31
0.0
  0
LINE
  5
6D9DB
  8
0
 62
     0
 10
24.989970871004029
 20
30.11933635023464
 30
0.0
 11
24.989970871004029
 21
30.11933635023464
 31
0.0
  0
LINE
  5
6D9DC
  8
0
 62
     0
 10
24.96787378409195
 20
30.09723926332256
 30
0.0
 11
24.96787378409195
 21
30.09723926332256
 31
0.0
  0
LINE
  5
6D9DD
  8
0
 62
     0
 10
24.94577669717987
 20
30.07514217641048
 30
0.0
 11
24.94577669717987
 21
30.07514217641048
 31
0.0
  0
LINE
  5
6D9DE
  8
0
 62
     0
 10
24.92367961026779
 20
30.053045089498401
 30
0.0
 11
24.92367961026779
 21
30.053045089498401
 31
0.0
  0
LINE
  5
6D9DF
  8
0
 62
     0
 10
24.901582523355721
 20
30.030948002586321
 30
0.0
 11
24.901582523355721
 21
30.030948002586321
 31
0.0
  0
LINE
  5
6D9E0
  8
0
 62
     0
 10
24.87948543644363
 20
30.008850915674241
 30
0.0
 11
24.87948543644363
 21
30.008850915674241
 31
0.0
  0
LINE
  5
6D9E1
  8
0
 62
     0
 10
24.857388349531551
 20
29.986753828762161
 30
0.0
 11
24.857388349531551
 21
29.986753828762161
 31
0.0
  0
LINE
  5
6D9E2
  8
0
 62
     0
 10
24.835291262619471
 20
29.964656741850082
 30
0.0
 11
24.835291262619471
 21
29.964656741850082
 31
0.0
  0
LINE
  5
6D9E3
  8
0
 62
     0
 10
25.199893196668771
 20
30.373452849723549
 30
0.0
 11
25.199893196668771
 21
30.373452849723549
 31
0.0
  0
LINE
  5
6D9E4
  8
0
 62
     0
 10
25.177796109756709
 20
30.35135576281148
 30
0.0
 11
25.177796109756709
 21
30.35135576281148
 31
0.0
  0
LINE
  5
6D9E5
  8
0
 62
     0
 10
25.221990283580858
 20
30.395549936635629
 30
0.0
 11
25.221990283580858
 21
30.395549936635629
 31
0.0
  0
LINE
  5
6D9E6
  8
0
 62
     0
 10
25.465058239613739
 20
30.63861789266851
 30
0.0
 11
25.465058239613739
 21
30.63861789266851
 31
0.0
  0
LINE
  5
6D9E7
  8
0
 62
     0
 10
25.44296115270166
 20
30.61652080575643
 30
0.0
 11
25.44296115270166
 21
30.61652080575643
 31
0.0
  0
LINE
  5
6D9E8
  8
0
 62
     0
 10
25.42086406578958
 20
30.59442371884435
 30
0.0
 11
25.42086406578958
 21
30.59442371884435
 31
0.0
  0
LINE
  5
6D9E9
  8
0
 62
     0
 10
25.3987669788775
 20
30.57232663193227
 30
0.0
 11
25.3987669788775
 21
30.57232663193227
 31
0.0
  0
LINE
  5
6D9EA
  8
0
 62
     0
 10
25.376669891965431
 20
30.550229545020191
 30
0.0
 11
25.376669891965431
 21
30.550229545020191
 31
0.0
  0
LINE
  5
6D9EB
  8
0
 62
     0
 10
25.354572805053341
 20
30.528132458108111
 30
0.0
 11
25.354572805053341
 21
30.528132458108111
 31
0.0
  0
LINE
  5
6D9EC
  8
0
 62
     0
 10
25.332475718141261
 20
30.506035371196031
 30
0.0
 11
25.332475718141261
 21
30.506035371196031
 31
0.0
  0
LINE
  5
6D9ED
  8
0
 62
     0
 10
25.310378631229181
 20
30.483938284283951
 30
0.0
 11
25.310378631229181
 21
30.483938284283951
 31
0.0
  0
LINE
  5
6D9EE
  8
0
 62
     0
 10
25.288281544317101
 20
30.461841197371871
 30
0.0
 11
25.288281544317101
 21
30.461841197371871
 31
0.0
  0
LINE
  5
6D9EF
  8
0
 62
     0
 10
25.266184457405021
 20
30.439744110459792
 30
0.0
 11
25.266184457405021
 21
30.439744110459792
 31
0.0
  0
LINE
  5
6D9F0
  8
0
 62
     0
 10
25.244087370492949
 20
30.417647023547708
 30
0.0
 11
25.244087370492949
 21
30.417647023547708
 31
0.0
  0
LINE
  5
6D9F1
  8
0
 62
     0
 10
25.13360193593255
 20
30.30716158898732
 30
0.0
 11
25.13360193593255
 21
30.30716158898732
 31
0.0
  0
LINE
  5
6D9F2
  8
0
 62
     0
 10
25.11150484902047
 20
30.28506450207524
 30
0.0
 11
25.11150484902047
 21
30.28506450207524
 31
0.0
  0
LINE
  5
6D9F3
  8
0
 62
     0
 10
25.08940776210839
 20
30.26296741516316
 30
0.0
 11
25.08940776210839
 21
30.26296741516316
 31
0.0
  0
LINE
  5
6D9F4
  8
0
 62
     0
 10
25.06731067519631
 20
30.240870328251081
 30
0.0
 11
25.06731067519631
 21
30.240870328251081
 31
0.0
  0
LINE
  5
6D9F5
  8
0
 62
     0
 10
25.045213588284231
 20
30.218773241339001
 30
0.0
 11
25.045213588284231
 21
30.218773241339001
 31
0.0
  0
LINE
  5
6D9F6
  8
0
 62
     0
 10
25.023116501372151
 20
30.196676154426921
 30
0.0
 11
25.023116501372151
 21
30.196676154426921
 31
0.0
  0
LINE
  5
6D9F7
  8
0
 62
     0
 10
25.001019414460071
 20
30.174579067514841
 30
0.0
 11
25.001019414460071
 21
30.174579067514841
 31
0.0
  0
LINE
  5
6D9F8
  8
0
 62
     0
 10
24.978922327547991
 20
30.152481980602762
 30
0.0
 11
24.978922327547991
 21
30.152481980602762
 31
0.0
  0
LINE
  5
6D9F9
  8
0
 62
     0
 10
24.956825240635911
 20
30.130384893690682
 30
0.0
 11
24.956825240635911
 21
30.130384893690682
 31
0.0
  0
LINE
  5
6D9FA
  8
0
 62
     0
 10
24.934728153723832
 20
30.108287806778598
 30
0.0
 11
24.934728153723832
 21
30.108287806778598
 31
0.0
  0
LINE
  5
6D9FB
  8
0
 62
     0
 10
24.912631066811748
 20
30.086190719866519
 30
0.0
 11
24.912631066811748
 21
30.086190719866519
 31
0.0
  0
LINE
  5
6D9FC
  8
0
 62
     0
 10
24.890533979899669
 20
30.064093632954439
 30
0.0
 11
24.890533979899669
 21
30.064093632954439
 31
0.0
  0
LINE
  5
6D9FD
  8
0
 62
     0
 10
24.868436892987589
 20
30.041996546042359
 30
0.0
 11
24.868436892987589
 21
30.041996546042359
 31
0.0
  0
LINE
  5
6D9FE
  8
0
 62
     0
 10
24.846339806075509
 20
30.019899459130279
 30
0.0
 11
24.846339806075509
 21
30.019899459130279
 31
0.0
  0
LINE
  5
6D9FF
  8
0
 62
     0
 10
24.824242719163429
 20
29.997802372218199
 30
0.0
 11
24.824242719163429
 21
29.997802372218199
 31
0.0
  0
LINE
  5
6DA00
  8
0
 62
     0
 10
24.80214563225136
 20
29.97570528530612
 30
0.0
 11
24.80214563225136
 21
29.97570528530612
 31
0.0
  0
LINE
  5
6DA01
  8
0
 62
     0
 10
24.78004854533927
 20
29.95360819839404
 30
0.0
 11
24.78004854533927
 21
29.95360819839404
 31
0.0
  0
LINE
  5
6DA02
  8
0
 62
     0
 10
25.144650479388581
 20
30.362404306267511
 30
0.0
 11
25.144650479388581
 21
30.362404306267511
 31
0.0
  0
LINE
  5
6DA03
  8
0
 62
     0
 10
25.122553392476501
 20
30.340307219355431
 30
0.0
 11
25.122553392476501
 21
30.340307219355431
 31
0.0
  0
LINE
  5
6DA04
  8
0
 62
     0
 10
25.188844653212751
 20
30.40659848009167
 30
0.0
 11
25.188844653212751
 21
30.40659848009167
 31
0.0
  0
LINE
  5
6DA05
  8
0
 62
     0
 10
25.409815522333538
 20
30.627569349212472
 30
0.0
 11
25.409815522333538
 21
30.627569349212472
 31
0.0
  0
LINE
  5
6DA06
  8
0
 62
     0
 10
25.387718435421451
 20
30.605472262300388
 30
0.0
 11
25.387718435421451
 21
30.605472262300388
 31
0.0
  0
LINE
  5
6DA07
  8
0
 62
     0
 10
25.365621348509372
 20
30.583375175388309
 30
0.0
 11
25.365621348509372
 21
30.583375175388309
 31
0.0
  0
LINE
  5
6DA08
  8
0
 62
     0
 10
25.343524261597299
 20
30.561278088476229
 30
0.0
 11
25.343524261597299
 21
30.561278088476229
 31
0.0
  0
LINE
  5
6DA09
  8
0
 62
     0
 10
25.321427174685219
 20
30.539181001564149
 30
0.0
 11
25.321427174685219
 21
30.539181001564149
 31
0.0
  0
LINE
  5
6DA0A
  8
0
 62
     0
 10
25.299330087773139
 20
30.517083914652069
 30
0.0
 11
25.299330087773139
 21
30.517083914652069
 31
0.0
  0
LINE
  5
6DA0B
  8
0
 62
     0
 10
25.27723300086106
 20
30.494986827739989
 30
0.0
 11
25.27723300086106
 21
30.494986827739989
 31
0.0
  0
LINE
  5
6DA0C
  8
0
 62
     0
 10
25.25513591394898
 20
30.47288974082791
 30
0.0
 11
25.25513591394898
 21
30.47288974082791
 31
0.0
  0
LINE
  5
6DA0D
  8
0
 62
     0
 10
25.2330388270369
 20
30.45079265391583
 30
0.0
 11
25.2330388270369
 21
30.45079265391583
 31
0.0
  0
LINE
  5
6DA0E
  8
0
 62
     0
 10
25.21094174012482
 20
30.42869556700375
 30
0.0
 11
25.21094174012482
 21
30.42869556700375
 31
0.0
  0
LINE
  5
6DA0F
  8
0
 62
     0
 10
25.100456305564421
 20
30.318210132443362
 30
0.0
 11
25.100456305564421
 21
30.318210132443362
 31
0.0
  0
LINE
  5
6DA10
  8
0
 62
     0
 10
25.078359218652349
 20
30.296113045531278
 30
0.0
 11
25.078359218652349
 21
30.296113045531278
 31
0.0
  0
LINE
  5
6DA11
  8
0
 62
     0
 10
25.056262131740269
 20
30.274015958619199
 30
0.0
 11
25.056262131740269
 21
30.274015958619199
 31
0.0
  0
LINE
  5
6DA12
  8
0
 62
     0
 10
25.0341650448282
 20
30.251918871707112
 30
0.0
 11
25.0341650448282
 21
30.251918871707112
 31
0.0
  0
LINE
  5
6DA13
  8
0
 62
     0
 10
25.012067957916109
 20
30.229821784795039
 30
0.0
 11
25.012067957916109
 21
30.229821784795039
 31
0.0
  0
LINE
  5
6DA14
  8
0
 62
     0
 10
24.989970871004029
 20
30.207724697882959
 30
0.0
 11
24.989970871004029
 21
30.207724697882959
 31
0.0
  0
LINE
  5
6DA15
  8
0
 62
     0
 10
24.96787378409195
 20
30.185627610970879
 30
0.0
 11
24.96787378409195
 21
30.185627610970879
 31
0.0
  0
LINE
  5
6DA16
  8
0
 62
     0
 10
24.94577669717987
 20
30.1635305240588
 30
0.0
 11
24.94577669717987
 21
30.1635305240588
 31
0.0
  0
LINE
  5
6DA17
  8
0
 62
     0
 10
24.92367961026779
 20
30.14143343714672
 30
0.0
 11
24.92367961026779
 21
30.14143343714672
 31
0.0
  0
LINE
  5
6DA18
  8
0
 62
     0
 10
24.901582523355721
 20
30.11933635023464
 30
0.0
 11
24.901582523355721
 21
30.11933635023464
 31
0.0
  0
LINE
  5
6DA19
  8
0
 62
     0
 10
24.87948543644363
 20
30.09723926332256
 30
0.0
 11
24.87948543644363
 21
30.09723926332256
 31
0.0
  0
LINE
  5
6DA1A
  8
0
 62
     0
 10
24.857388349531551
 20
30.07514217641048
 30
0.0
 11
24.857388349531551
 21
30.07514217641048
 31
0.0
  0
LINE
  5
6DA1B
  8
0
 62
     0
 10
24.835291262619471
 20
30.053045089498401
 30
0.0
 11
24.835291262619471
 21
30.053045089498401
 31
0.0
  0
LINE
  5
6DA1C
  8
0
 62
     0
 10
24.813194175707391
 20
30.030948002586321
 30
0.0
 11
24.813194175707391
 21
30.030948002586321
 31
0.0
  0
LINE
  5
6DA1D
  8
0
 62
     0
 10
24.791097088795311
 20
30.008850915674241
 30
0.0
 11
24.791097088795311
 21
30.008850915674241
 31
0.0
  0
LINE
  5
6DA1E
  8
0
 62
     0
 10
25.133601935932539
 20
30.395549936635629
 30
0.0
 11
25.133601935932539
 21
30.395549936635629
 31
0.0
  0
LINE
  5
6DA1F
  8
0
 62
     0
 10
25.08940776210839
 20
30.35135576281148
 30
0.0
 11
25.08940776210839
 21
30.35135576281148
 31
0.0
  0
LINE
  5
6DA20
  8
0
 62
     0
 10
25.376669891965431
 20
30.63861789266851
 30
0.0
 11
25.376669891965431
 21
30.63861789266851
 31
0.0
  0
LINE
  5
6DA21
  8
0
 62
     0
 10
25.354572805053341
 20
30.61652080575643
 30
0.0
 11
25.354572805053341
 21
30.61652080575643
 31
0.0
  0
LINE
  5
6DA22
  8
0
 62
     0
 10
25.332475718141261
 20
30.59442371884435
 30
0.0
 11
25.332475718141261
 21
30.59442371884435
 31
0.0
  0
LINE
  5
6DA23
  8
0
 62
     0
 10
25.310378631229181
 20
30.57232663193227
 30
0.0
 11
25.310378631229181
 21
30.57232663193227
 31
0.0
  0
LINE
  5
6DA24
  8
0
 62
     0
 10
25.288281544317101
 20
30.550229545020191
 30
0.0
 11
25.288281544317101
 21
30.550229545020191
 31
0.0
  0
LINE
  5
6DA25
  8
0
 62
     0
 10
25.266184457405021
 20
30.528132458108111
 30
0.0
 11
25.266184457405021
 21
30.528132458108111
 31
0.0
  0
LINE
  5
6DA26
  8
0
 62
     0
 10
25.244087370492949
 20
30.506035371196031
 30
0.0
 11
25.244087370492949
 21
30.506035371196031
 31
0.0
  0
LINE
  5
6DA27
  8
0
 62
     0
 10
25.221990283580858
 20
30.483938284283951
 30
0.0
 11
25.221990283580858
 21
30.483938284283951
 31
0.0
  0
LINE
  5
6DA28
  8
0
 62
     0
 10
25.199893196668789
 20
30.461841197371871
 30
0.0
 11
25.199893196668789
 21
30.461841197371871
 31
0.0
  0
LINE
  5
6DA29
  8
0
 62
     0
 10
25.177796109756699
 20
30.439744110459792
 30
0.0
 11
25.177796109756699
 21
30.439744110459792
 31
0.0
  0
LINE
  5
6DA2A
  8
0
 62
     0
 10
25.155699022844608
 20
30.417647023547708
 30
0.0
 11
25.155699022844608
 21
30.417647023547708
 31
0.0
  0
LINE
  5
6DA2B
  8
0
 62
     0
 10
25.06731067519631
 20
30.3292586758994
 30
0.0
 11
25.06731067519631
 21
30.3292586758994
 31
0.0
  0
LINE
  5
6DA2C
  8
0
 62
     0
 10
25.045213588284231
 20
30.30716158898732
 30
0.0
 11
25.045213588284231
 21
30.30716158898732
 31
0.0
  0
LINE
  5
6DA2D
  8
0
 62
     0
 10
25.023116501372151
 20
30.28506450207524
 30
0.0
 11
25.023116501372151
 21
30.28506450207524
 31
0.0
  0
LINE
  5
6DA2E
  8
0
 62
     0
 10
25.001019414460071
 20
30.26296741516316
 30
0.0
 11
25.001019414460071
 21
30.26296741516316
 31
0.0
  0
LINE
  5
6DA2F
  8
0
 62
     0
 10
24.978922327547991
 20
30.240870328251081
 30
0.0
 11
24.978922327547991
 21
30.240870328251081
 31
0.0
  0
LINE
  5
6DA30
  8
0
 62
     0
 10
24.956825240635911
 20
30.218773241339001
 30
0.0
 11
24.956825240635911
 21
30.218773241339001
 31
0.0
  0
LINE
  5
6DA31
  8
0
 62
     0
 10
24.934728153723832
 20
30.196676154426921
 30
0.0
 11
24.934728153723832
 21
30.196676154426921
 31
0.0
  0
LINE
  5
6DA32
  8
0
 62
     0
 10
24.912631066811748
 20
30.174579067514841
 30
0.0
 11
24.912631066811748
 21
30.174579067514841
 31
0.0
  0
LINE
  5
6DA33
  8
0
 62
     0
 10
24.890533979899669
 20
30.152481980602762
 30
0.0
 11
24.890533979899669
 21
30.152481980602762
 31
0.0
  0
LINE
  5
6DA34
  8
0
 62
     0
 10
24.868436892987589
 20
30.130384893690682
 30
0.0
 11
24.868436892987589
 21
30.130384893690682
 31
0.0
  0
LINE
  5
6DA35
  8
0
 62
     0
 10
24.846339806075509
 20
30.108287806778598
 30
0.0
 11
24.846339806075509
 21
30.108287806778598
 31
0.0
  0
LINE
  5
6DA36
  8
0
 62
     0
 10
24.824242719163429
 20
30.086190719866519
 30
0.0
 11
24.824242719163429
 21
30.086190719866519
 31
0.0
  0
LINE
  5
6DA37
  8
0
 62
     0
 10
24.80214563225136
 20
30.064093632954439
 30
0.0
 11
24.80214563225136
 21
30.064093632954439
 31
0.0
  0
LINE
  5
6DA38
  8
0
 62
     0
 10
24.78004854533927
 20
30.041996546042359
 30
0.0
 11
24.78004854533927
 21
30.041996546042359
 31
0.0
  0
LINE
  5
6DA39
  8
0
 62
     0
 10
25.078359218652349
 20
30.38450139317959
 30
0.0
 11
25.078359218652349
 21
30.38450139317959
 31
0.0
  0
LINE
  5
6DA3A
  8
0
 62
     0
 10
25.056262131740269
 20
30.362404306267511
 30
0.0
 11
25.056262131740269
 21
30.362404306267511
 31
0.0
  0
LINE
  5
6DA3B
  8
0
 62
     0
 10
25.0341650448282
 20
30.340307219355442
 30
0.0
 11
25.0341650448282
 21
30.340307219355442
 31
0.0
  0
LINE
  5
6DA3C
  8
0
 62
     0
 10
25.321427174685219
 20
30.627569349212472
 30
0.0
 11
25.321427174685219
 21
30.627569349212472
 31
0.0
  0
LINE
  5
6DA3D
  8
0
 62
     0
 10
25.29933008777315
 20
30.605472262300388
 30
0.0
 11
25.29933008777315
 21
30.605472262300388
 31
0.0
  0
LINE
  5
6DA3E
  8
0
 62
     0
 10
25.27723300086107
 20
30.583375175388309
 30
0.0
 11
25.27723300086107
 21
30.583375175388309
 31
0.0
  0
LINE
  5
6DA3F
  8
0
 62
     0
 10
25.25513591394898
 20
30.561278088476239
 30
0.0
 11
25.25513591394898
 21
30.561278088476239
 31
0.0
  0
LINE
  5
6DA40
  8
0
 62
     0
 10
25.2330388270369
 20
30.539181001564149
 30
0.0
 11
25.2330388270369
 21
30.539181001564149
 31
0.0
  0
LINE
  5
6DA41
  8
0
 62
     0
 10
25.21094174012482
 20
30.517083914652069
 30
0.0
 11
25.21094174012482
 21
30.517083914652069
 31
0.0
  0
LINE
  5
6DA42
  8
0
 62
     0
 10
25.188844653212751
 20
30.494986827739989
 30
0.0
 11
25.188844653212751
 21
30.494986827739989
 31
0.0
  0
LINE
  5
6DA43
  8
0
 62
     0
 10
25.166747566300678
 20
30.47288974082791
 30
0.0
 11
25.166747566300678
 21
30.47288974082791
 31
0.0
  0
LINE
  5
6DA44
  8
0
 62
     0
 10
25.144650479388591
 20
30.45079265391584
 30
0.0
 11
25.144650479388591
 21
30.45079265391584
 31
0.0
  0
LINE
  5
6DA45
  8
0
 62
     0
 10
25.122553392476501
 20
30.428695567003761
 30
0.0
 11
25.122553392476501
 21
30.428695567003761
 31
0.0
  0
LINE
  5
6DA46
  8
0
 62
     0
 10
25.100456305564421
 20
30.40659848009167
 30
0.0
 11
25.100456305564421
 21
30.40659848009167
 31
0.0
  0
LINE
  5
6DA47
  8
0
 62
     0
 10
25.012067957916109
 20
30.318210132443362
 30
0.0
 11
25.012067957916109
 21
30.318210132443362
 31
0.0
  0
LINE
  5
6DA48
  8
0
 62
     0
 10
24.989970871004029
 20
30.296113045531278
 30
0.0
 11
24.989970871004029
 21
30.296113045531278
 31
0.0
  0
LINE
  5
6DA49
  8
0
 62
     0
 10
24.96787378409195
 20
30.274015958619199
 30
0.0
 11
24.96787378409195
 21
30.274015958619199
 31
0.0
  0
LINE
  5
6DA4A
  8
0
 62
     0
 10
24.94577669717987
 20
30.251918871707112
 30
0.0
 11
24.94577669717987
 21
30.251918871707112
 31
0.0
  0
LINE
  5
6DA4B
  8
0
 62
     0
 10
24.92367961026779
 20
30.229821784795039
 30
0.0
 11
24.92367961026779
 21
30.229821784795039
 31
0.0
  0
LINE
  5
6DA4C
  8
0
 62
     0
 10
24.901582523355721
 20
30.207724697882959
 30
0.0
 11
24.901582523355721
 21
30.207724697882959
 31
0.0
  0
LINE
  5
6DA4D
  8
0
 62
     0
 10
24.87948543644363
 20
30.185627610970879
 30
0.0
 11
24.87948543644363
 21
30.185627610970879
 31
0.0
  0
LINE
  5
6DA4E
  8
0
 62
     0
 10
24.857388349531551
 20
30.1635305240588
 30
0.0
 11
24.857388349531551
 21
30.1635305240588
 31
0.0
  0
LINE
  5
6DA4F
  8
0
 62
     0
 10
24.835291262619471
 20
30.14143343714672
 30
0.0
 11
24.835291262619471
 21
30.14143343714672
 31
0.0
  0
LINE
  5
6DA50
  8
0
 62
     0
 10
24.813194175707391
 20
30.11933635023464
 30
0.0
 11
24.813194175707391
 21
30.11933635023464
 31
0.0
  0
LINE
  5
6DA51
  8
0
 62
     0
 10
24.791097088795311
 20
30.09723926332256
 30
0.0
 11
24.791097088795311
 21
30.09723926332256
 31
0.0
  0
LINE
  5
6DA52
  8
0
 62
     0
 10
25.02311650137214
 20
30.373452849723549
 30
0.0
 11
25.02311650137214
 21
30.373452849723549
 31
0.0
  0
LINE
  5
6DA53
  8
0
 62
     0
 10
25.00101941446006
 20
30.35135576281148
 30
0.0
 11
25.00101941446006
 21
30.35135576281148
 31
0.0
  0
LINE
  5
6DA54
  8
0
 62
     0
 10
25.04521358828422
 20
30.395549936635629
 30
0.0
 11
25.04521358828422
 21
30.395549936635629
 31
0.0
  0
LINE
  5
6DA55
  8
0
 62
     0
 10
24.978922327547981
 20
30.329258675899389
 30
0.0
 11
24.978922327547981
 21
30.329258675899389
 31
0.0
  0
LINE
  5
6DA56
  8
0
 62
     0
 10
25.288281544317101
 20
30.63861789266851
 30
0.0
 11
25.288281544317101
 21
30.63861789266851
 31
0.0
  0
LINE
  5
6DA57
  8
0
 62
     0
 10
25.266184457405021
 20
30.61652080575643
 30
0.0
 11
25.266184457405021
 21
30.61652080575643
 31
0.0
  0
LINE
  5
6DA58
  8
0
 62
     0
 10
25.244087370492949
 20
30.59442371884435
 30
0.0
 11
25.244087370492949
 21
30.59442371884435
 31
0.0
  0
LINE
  5
6DA59
  8
0
 62
     0
 10
25.221990283580858
 20
30.57232663193227
 30
0.0
 11
25.221990283580858
 21
30.57232663193227
 31
0.0
  0
LINE
  5
6DA5A
  8
0
 62
     0
 10
25.199893196668789
 20
30.550229545020191
 30
0.0
 11
25.199893196668789
 21
30.550229545020191
 31
0.0
  0
LINE
  5
6DA5B
  8
0
 62
     0
 10
25.177796109756699
 20
30.528132458108111
 30
0.0
 11
25.177796109756699
 21
30.528132458108111
 31
0.0
  0
LINE
  5
6DA5C
  8
0
 62
     0
 10
25.155699022844608
 20
30.506035371196031
 30
0.0
 11
25.155699022844608
 21
30.506035371196031
 31
0.0
  0
LINE
  5
6DA5D
  8
0
 62
     0
 10
25.133601935932539
 20
30.483938284283951
 30
0.0
 11
25.133601935932539
 21
30.483938284283951
 31
0.0
  0
LINE
  5
6DA5E
  8
0
 62
     0
 10
25.111504849020449
 20
30.461841197371871
 30
0.0
 11
25.111504849020449
 21
30.461841197371871
 31
0.0
  0
LINE
  5
6DA5F
  8
0
 62
     0
 10
25.08940776210839
 20
30.439744110459792
 30
0.0
 11
25.08940776210839
 21
30.439744110459792
 31
0.0
  0
LINE
  5
6DA60
  8
0
 62
     0
 10
25.06731067519631
 20
30.417647023547708
 30
0.0
 11
25.06731067519631
 21
30.417647023547708
 31
0.0
  0
LINE
  5
6DA61
  8
0
 62
     0
 10
24.956825240635911
 20
30.307161588987309
 30
0.0
 11
24.956825240635911
 21
30.307161588987309
 31
0.0
  0
LINE
  5
6DA62
  8
0
 62
     0
 10
24.934728153723832
 20
30.28506450207523
 30
0.0
 11
24.934728153723832
 21
30.28506450207523
 31
0.0
  0
LINE
  5
6DA63
  8
0
 62
     0
 10
24.912631066811748
 20
30.26296741516315
 30
0.0
 11
24.912631066811748
 21
30.26296741516315
 31
0.0
  0
LINE
  5
6DA64
  8
0
 62
     0
 10
24.890533979899669
 20
30.240870328251081
 30
0.0
 11
24.890533979899669
 21
30.240870328251081
 31
0.0
  0
LINE
  5
6DA65
  8
0
 62
     0
 10
24.868436892987589
 20
30.218773241339001
 30
0.0
 11
24.868436892987589
 21
30.218773241339001
 31
0.0
  0
LINE
  5
6DA66
  8
0
 62
     0
 10
24.846339806075509
 20
30.196676154426921
 30
0.0
 11
24.846339806075509
 21
30.196676154426921
 31
0.0
  0
LINE
  5
6DA67
  8
0
 62
     0
 10
24.824242719163429
 20
30.174579067514831
 30
0.0
 11
24.824242719163429
 21
30.174579067514831
 31
0.0
  0
LINE
  5
6DA68
  8
0
 62
     0
 10
24.80214563225136
 20
30.152481980602751
 30
0.0
 11
24.80214563225136
 21
30.152481980602751
 31
0.0
  0
LINE
  5
6DA69
  8
0
 62
     0
 10
24.78004854533927
 20
30.130384893690682
 30
0.0
 11
24.78004854533927
 21
30.130384893690682
 31
0.0
  0
LINE
  5
6DA6A
  8
0
 62
     0
 10
24.989970871004029
 20
30.38450139317959
 30
0.0
 11
24.989970871004029
 21
30.38450139317959
 31
0.0
  0
LINE
  5
6DA6B
  8
0
 62
     0
 10
24.967873784091939
 20
30.362404306267511
 30
0.0
 11
24.967873784091939
 21
30.362404306267511
 31
0.0
  0
LINE
  5
6DA6C
  8
0
 62
     0
 10
25.012067957916091
 20
30.40659848009167
 30
0.0
 11
25.012067957916091
 21
30.40659848009167
 31
0.0
  0
LINE
  5
6DA6D
  8
0
 62
     0
 10
24.94577669717987
 20
30.340307219355431
 30
0.0
 11
24.94577669717987
 21
30.340307219355431
 31
0.0
  0
LINE
  5
6DA6E
  8
0
 62
     0
 10
25.2330388270369
 20
30.627569349212472
 30
0.0
 11
25.2330388270369
 21
30.627569349212472
 31
0.0
  0
LINE
  5
6DA6F
  8
0
 62
     0
 10
25.21094174012482
 20
30.605472262300388
 30
0.0
 11
25.21094174012482
 21
30.605472262300388
 31
0.0
  0
LINE
  5
6DA70
  8
0
 62
     0
 10
25.188844653212751
 20
30.583375175388309
 30
0.0
 11
25.188844653212751
 21
30.583375175388309
 31
0.0
  0
LINE
  5
6DA71
  8
0
 62
     0
 10
25.166747566300678
 20
30.561278088476229
 30
0.0
 11
25.166747566300678
 21
30.561278088476229
 31
0.0
  0
LINE
  5
6DA72
  8
0
 62
     0
 10
25.144650479388591
 20
30.539181001564149
 30
0.0
 11
25.144650479388591
 21
30.539181001564149
 31
0.0
  0
LINE
  5
6DA73
  8
0
 62
     0
 10
25.122553392476501
 20
30.517083914652069
 30
0.0
 11
25.122553392476501
 21
30.517083914652069
 31
0.0
  0
LINE
  5
6DA74
  8
0
 62
     0
 10
25.100456305564421
 20
30.494986827739989
 30
0.0
 11
25.100456305564421
 21
30.494986827739989
 31
0.0
  0
LINE
  5
6DA75
  8
0
 62
     0
 10
25.078359218652349
 20
30.47288974082791
 30
0.0
 11
25.078359218652349
 21
30.47288974082791
 31
0.0
  0
LINE
  5
6DA76
  8
0
 62
     0
 10
25.056262131740269
 20
30.45079265391583
 30
0.0
 11
25.056262131740269
 21
30.45079265391583
 31
0.0
  0
LINE
  5
6DA77
  8
0
 62
     0
 10
25.0341650448282
 20
30.42869556700375
 30
0.0
 11
25.0341650448282
 21
30.42869556700375
 31
0.0
  0
LINE
  5
6DA78
  8
0
 62
     0
 10
24.923679610267769
 20
30.318210132443351
 30
0.0
 11
24.923679610267769
 21
30.318210132443351
 31
0.0
  0
LINE
  5
6DA79
  8
0
 62
     0
 10
24.9015825233557
 20
30.296113045531271
 30
0.0
 11
24.9015825233557
 21
30.296113045531271
 31
0.0
  0
LINE
  5
6DA7A
  8
0
 62
     0
 10
24.87948543644363
 20
30.274015958619191
 30
0.0
 11
24.87948543644363
 21
30.274015958619191
 31
0.0
  0
LINE
  5
6DA7B
  8
0
 62
     0
 10
24.857388349531551
 20
30.251918871707112
 30
0.0
 11
24.857388349531551
 21
30.251918871707112
 31
0.0
  0
LINE
  5
6DA7C
  8
0
 62
     0
 10
24.83529126261946
 20
30.229821784795028
 30
0.0
 11
24.83529126261946
 21
30.229821784795028
 31
0.0
  0
LINE
  5
6DA7D
  8
0
 62
     0
 10
24.81319417570738
 20
30.207724697882949
 30
0.0
 11
24.81319417570738
 21
30.207724697882949
 31
0.0
  0
LINE
  5
6DA7E
  8
0
 62
     0
 10
24.791097088795301
 20
30.185627610970869
 30
0.0
 11
24.791097088795301
 21
30.185627610970869
 31
0.0
  0
LINE
  5
6DA7F
  8
0
 62
     0
 10
24.956825240635901
 20
30.395549936635629
 30
0.0
 11
24.956825240635901
 21
30.395549936635629
 31
0.0
  0
LINE
  5
6DA80
  8
0
 62
     0
 10
24.934728153723821
 20
30.373452849723549
 30
0.0
 11
24.934728153723821
 21
30.373452849723549
 31
0.0
  0
LINE
  5
6DA81
  8
0
 62
     0
 10
24.912631066811748
 20
30.35135576281148
 30
0.0
 11
24.912631066811748
 21
30.35135576281148
 31
0.0
  0
LINE
  5
6DA82
  8
0
 62
     0
 10
25.199893196668789
 20
30.63861789266851
 30
0.0
 11
25.199893196668789
 21
30.63861789266851
 31
0.0
  0
LINE
  5
6DA83
  8
0
 62
     0
 10
25.177796109756699
 20
30.61652080575643
 30
0.0
 11
25.177796109756699
 21
30.61652080575643
 31
0.0
  0
LINE
  5
6DA84
  8
0
 62
     0
 10
25.155699022844608
 20
30.59442371884435
 30
0.0
 11
25.155699022844608
 21
30.59442371884435
 31
0.0
  0
LINE
  5
6DA85
  8
0
 62
     0
 10
25.133601935932539
 20
30.57232663193227
 30
0.0
 11
25.133601935932539
 21
30.57232663193227
 31
0.0
  0
LINE
  5
6DA86
  8
0
 62
     0
 10
25.111504849020449
 20
30.550229545020191
 30
0.0
 11
25.111504849020449
 21
30.550229545020191
 31
0.0
  0
LINE
  5
6DA87
  8
0
 62
     0
 10
25.08940776210839
 20
30.528132458108111
 30
0.0
 11
25.08940776210839
 21
30.528132458108111
 31
0.0
  0
LINE
  5
6DA88
  8
0
 62
     0
 10
25.06731067519631
 20
30.506035371196031
 30
0.0
 11
25.06731067519631
 21
30.506035371196031
 31
0.0
  0
LINE
  5
6DA89
  8
0
 62
     0
 10
25.04521358828422
 20
30.483938284283951
 30
0.0
 11
25.04521358828422
 21
30.483938284283951
 31
0.0
  0
LINE
  5
6DA8A
  8
0
 62
     0
 10
25.02311650137214
 20
30.461841197371871
 30
0.0
 11
25.02311650137214
 21
30.461841197371871
 31
0.0
  0
LINE
  5
6DA8B
  8
0
 62
     0
 10
25.00101941446006
 20
30.439744110459792
 30
0.0
 11
25.00101941446006
 21
30.439744110459792
 31
0.0
  0
LINE
  5
6DA8C
  8
0
 62
     0
 10
24.978922327547991
 20
30.417647023547708
 30
0.0
 11
24.978922327547991
 21
30.417647023547708
 31
0.0
  0
LINE
  5
6DA8D
  8
0
 62
     0
 10
24.890533979899661
 20
30.329258675899389
 30
0.0
 11
24.890533979899661
 21
30.329258675899389
 31
0.0
  0
LINE
  5
6DA8E
  8
0
 62
     0
 10
24.868436892987589
 20
30.307161588987309
 30
0.0
 11
24.868436892987589
 21
30.307161588987309
 31
0.0
  0
LINE
  5
6DA8F
  8
0
 62
     0
 10
24.846339806075509
 20
30.28506450207523
 30
0.0
 11
24.846339806075509
 21
30.28506450207523
 31
0.0
  0
LINE
  5
6DA90
  8
0
 62
     0
 10
24.824242719163429
 20
30.26296741516315
 30
0.0
 11
24.824242719163429
 21
30.26296741516315
 31
0.0
  0
LINE
  5
6DA91
  8
0
 62
     0
 10
24.80214563225136
 20
30.240870328251081
 30
0.0
 11
24.80214563225136
 21
30.240870328251081
 31
0.0
  0
LINE
  5
6DA92
  8
0
 62
     0
 10
24.78004854533927
 20
30.218773241339001
 30
0.0
 11
24.78004854533927
 21
30.218773241339001
 31
0.0
  0
LINE
  5
6DA93
  8
0
 62
     0
 10
24.9015825233557
 20
30.38450139317959
 30
0.0
 11
24.9015825233557
 21
30.38450139317959
 31
0.0
  0
LINE
  5
6DA94
  8
0
 62
     0
 10
24.87948543644363
 20
30.362404306267511
 30
0.0
 11
24.87948543644363
 21
30.362404306267511
 31
0.0
  0
LINE
  5
6DA95
  8
0
 62
     0
 10
24.857388349531551
 20
30.340307219355431
 30
0.0
 11
24.857388349531551
 21
30.340307219355431
 31
0.0
  0
LINE
  5
6DA96
  8
0
 62
     0
 10
25.144650479388591
 20
30.627569349212472
 30
0.0
 11
25.144650479388591
 21
30.627569349212472
 31
0.0
  0
LINE
  5
6DA97
  8
0
 62
     0
 10
25.122553392476501
 20
30.605472262300388
 30
0.0
 11
25.122553392476501
 21
30.605472262300388
 31
0.0
  0
LINE
  5
6DA98
  8
0
 62
     0
 10
25.100456305564421
 20
30.583375175388309
 30
0.0
 11
25.100456305564421
 21
30.583375175388309
 31
0.0
  0
LINE
  5
6DA99
  8
0
 62
     0
 10
25.078359218652349
 20
30.561278088476239
 30
0.0
 11
25.078359218652349
 21
30.561278088476239
 31
0.0
  0
LINE
  5
6DA9A
  8
0
 62
     0
 10
25.056262131740269
 20
30.539181001564149
 30
0.0
 11
25.056262131740269
 21
30.539181001564149
 31
0.0
  0
LINE
  5
6DA9B
  8
0
 62
     0
 10
25.0341650448282
 20
30.517083914652069
 30
0.0
 11
25.0341650448282
 21
30.517083914652069
 31
0.0
  0
LINE
  5
6DA9C
  8
0
 62
     0
 10
25.012067957916109
 20
30.494986827739989
 30
0.0
 11
25.012067957916109
 21
30.494986827739989
 31
0.0
  0
LINE
  5
6DA9D
  8
0
 62
     0
 10
24.989970871004029
 20
30.47288974082791
 30
0.0
 11
24.989970871004029
 21
30.47288974082791
 31
0.0
  0
LINE
  5
6DA9E
  8
0
 62
     0
 10
24.96787378409195
 20
30.45079265391584
 30
0.0
 11
24.96787378409195
 21
30.45079265391584
 31
0.0
  0
LINE
  5
6DA9F
  8
0
 62
     0
 10
24.94577669717987
 20
30.428695567003761
 30
0.0
 11
24.94577669717987
 21
30.428695567003761
 31
0.0
  0
LINE
  5
6DAA0
  8
0
 62
     0
 10
24.92367961026779
 20
30.40659848009167
 30
0.0
 11
24.92367961026779
 21
30.40659848009167
 31
0.0
  0
LINE
  5
6DAA1
  8
0
 62
     0
 10
24.835291262619471
 20
30.318210132443362
 30
0.0
 11
24.835291262619471
 21
30.318210132443362
 31
0.0
  0
LINE
  5
6DAA2
  8
0
 62
     0
 10
24.813194175707391
 20
30.296113045531278
 30
0.0
 11
24.813194175707391
 21
30.296113045531278
 31
0.0
  0
LINE
  5
6DAA3
  8
0
 62
     0
 10
24.791097088795311
 20
30.274015958619199
 30
0.0
 11
24.791097088795311
 21
30.274015958619199
 31
0.0
  0
LINE
  5
6DAA4
  8
0
 62
     0
 10
24.846339806075509
 20
30.373452849723549
 30
0.0
 11
24.846339806075509
 21
30.373452849723549
 31
0.0
  0
LINE
  5
6DAA5
  8
0
 62
     0
 10
24.868436892987589
 20
30.395549936635629
 30
0.0
 11
24.868436892987589
 21
30.395549936635629
 31
0.0
  0
LINE
  5
6DAA6
  8
0
 62
     0
 10
24.80214563225136
 20
30.3292586758994
 30
0.0
 11
24.80214563225136
 21
30.3292586758994
 31
0.0
  0
LINE
  5
6DAA7
  8
0
 62
     0
 10
25.111504849020449
 20
30.63861789266851
 30
0.0
 11
25.111504849020449
 21
30.63861789266851
 31
0.0
  0
LINE
  5
6DAA8
  8
0
 62
     0
 10
25.08940776210839
 20
30.61652080575643
 30
0.0
 11
25.08940776210839
 21
30.61652080575643
 31
0.0
  0
LINE
  5
6DAA9
  8
0
 62
     0
 10
25.06731067519631
 20
30.59442371884435
 30
0.0
 11
25.06731067519631
 21
30.59442371884435
 31
0.0
  0
LINE
  5
6DAAA
  8
0
 62
     0
 10
25.04521358828422
 20
30.57232663193227
 30
0.0
 11
25.04521358828422
 21
30.57232663193227
 31
0.0
  0
LINE
  5
6DAAB
  8
0
 62
     0
 10
25.02311650137214
 20
30.550229545020191
 30
0.0
 11
25.02311650137214
 21
30.550229545020191
 31
0.0
  0
LINE
  5
6DAAC
  8
0
 62
     0
 10
25.00101941446006
 20
30.528132458108111
 30
0.0
 11
25.00101941446006
 21
30.528132458108111
 31
0.0
  0
LINE
  5
6DAAD
  8
0
 62
     0
 10
24.978922327547991
 20
30.506035371196031
 30
0.0
 11
24.978922327547991
 21
30.506035371196031
 31
0.0
  0
LINE
  5
6DAAE
  8
0
 62
     0
 10
24.956825240635911
 20
30.483938284283951
 30
0.0
 11
24.956825240635911
 21
30.483938284283951
 31
0.0
  0
LINE
  5
6DAAF
  8
0
 62
     0
 10
24.934728153723832
 20
30.461841197371871
 30
0.0
 11
24.934728153723832
 21
30.461841197371871
 31
0.0
  0
LINE
  5
6DAB0
  8
0
 62
     0
 10
24.912631066811748
 20
30.439744110459792
 30
0.0
 11
24.912631066811748
 21
30.439744110459792
 31
0.0
  0
LINE
  5
6DAB1
  8
0
 62
     0
 10
24.890533979899661
 20
30.417647023547708
 30
0.0
 11
24.890533979899661
 21
30.417647023547708
 31
0.0
  0
LINE
  5
6DAB2
  8
0
 62
     0
 10
24.78004854533927
 20
30.307161588987309
 30
0.0
 11
24.78004854533927
 21
30.307161588987309
 31
0.0
  0
LINE
  5
6DAB3
  8
0
 62
     0
 10
24.813194175707391
 20
30.38450139317959
 30
0.0
 11
24.813194175707391
 21
30.38450139317959
 31
0.0
  0
LINE
  5
6DAB4
  8
0
 62
     0
 10
25.056262131740269
 20
30.627569349212472
 30
0.0
 11
25.056262131740269
 21
30.627569349212472
 31
0.0
  0
LINE
  5
6DAB5
  8
0
 62
     0
 10
25.034165044828178
 20
30.605472262300388
 30
0.0
 11
25.034165044828178
 21
30.605472262300388
 31
0.0
  0
LINE
  5
6DAB6
  8
0
 62
     0
 10
25.012067957916091
 20
30.583375175388309
 30
0.0
 11
25.012067957916091
 21
30.583375175388309
 31
0.0
  0
LINE
  5
6DAB7
  8
0
 62
     0
 10
24.989970871004029
 20
30.561278088476229
 30
0.0
 11
24.989970871004029
 21
30.561278088476229
 31
0.0
  0
LINE
  5
6DAB8
  8
0
 62
     0
 10
24.967873784091939
 20
30.539181001564149
 30
0.0
 11
24.967873784091939
 21
30.539181001564149
 31
0.0
  0
LINE
  5
6DAB9
  8
0
 62
     0
 10
24.945776697179859
 20
30.517083914652069
 30
0.0
 11
24.945776697179859
 21
30.517083914652069
 31
0.0
  0
LINE
  5
6DABA
  8
0
 62
     0
 10
24.923679610267769
 20
30.494986827739989
 30
0.0
 11
24.923679610267769
 21
30.494986827739989
 31
0.0
  0
LINE
  5
6DABB
  8
0
 62
     0
 10
24.9015825233557
 20
30.47288974082791
 30
0.0
 11
24.9015825233557
 21
30.47288974082791
 31
0.0
  0
LINE
  5
6DABC
  8
0
 62
     0
 10
24.87948543644363
 20
30.45079265391583
 30
0.0
 11
24.87948543644363
 21
30.45079265391583
 31
0.0
  0
LINE
  5
6DABD
  8
0
 62
     0
 10
24.857388349531551
 20
30.42869556700375
 30
0.0
 11
24.857388349531551
 21
30.42869556700375
 31
0.0
  0
LINE
  5
6DABE
  8
0
 62
     0
 10
24.83529126261946
 20
30.40659848009167
 30
0.0
 11
24.83529126261946
 21
30.40659848009167
 31
0.0
  0
LINE
  5
6DABF
  8
0
 62
     0
 10
24.791097088795311
 20
30.362404306267511
 30
0.0
 11
24.791097088795311
 21
30.362404306267511
 31
0.0
  0
LINE
  5
6DAC0
  8
0
 62
     0
 10
25.02311650137214
 20
30.638617892668499
 30
0.0
 11
25.02311650137214
 21
30.638617892668499
 31
0.0
  0
LINE
  5
6DAC1
  8
0
 62
     0
 10
25.00101941446006
 20
30.61652080575643
 30
0.0
 11
25.00101941446006
 21
30.61652080575643
 31
0.0
  0
LINE
  5
6DAC2
  8
0
 62
     0
 10
24.978922327547981
 20
30.59442371884435
 30
0.0
 11
24.978922327547981
 21
30.59442371884435
 31
0.0
  0
LINE
  5
6DAC3
  8
0
 62
     0
 10
24.956825240635901
 20
30.57232663193226
 30
0.0
 11
24.956825240635901
 21
30.57232663193226
 31
0.0
  0
LINE
  5
6DAC4
  8
0
 62
     0
 10
24.934728153723821
 20
30.55022954502018
 30
0.0
 11
24.934728153723821
 21
30.55022954502018
 31
0.0
  0
LINE
  5
6DAC5
  8
0
 62
     0
 10
24.912631066811741
 20
30.5281324581081
 30
0.0
 11
24.912631066811741
 21
30.5281324581081
 31
0.0
  0
LINE
  5
6DAC6
  8
0
 62
     0
 10
24.890533979899661
 20
30.506035371196031
 30
0.0
 11
24.890533979899661
 21
30.506035371196031
 31
0.0
  0
LINE
  5
6DAC7
  8
0
 62
     0
 10
24.868436892987589
 20
30.483938284283951
 30
0.0
 11
24.868436892987589
 21
30.483938284283951
 31
0.0
  0
LINE
  5
6DAC8
  8
0
 62
     0
 10
24.846339806075498
 20
30.461841197371871
 30
0.0
 11
24.846339806075498
 21
30.461841197371871
 31
0.0
  0
LINE
  5
6DAC9
  8
0
 62
     0
 10
24.824242719163411
 20
30.439744110459781
 30
0.0
 11
24.824242719163411
 21
30.439744110459781
 31
0.0
  0
LINE
  5
6DACA
  8
0
 62
     0
 10
24.802145632251339
 20
30.417647023547701
 30
0.0
 11
24.802145632251339
 21
30.417647023547701
 31
0.0
  0
LINE
  5
6DACB
  8
0
 62
     0
 10
24.967873784091939
 20
30.627569349212461
 30
0.0
 11
24.967873784091939
 21
30.627569349212461
 31
0.0
  0
LINE
  5
6DACC
  8
0
 62
     0
 10
24.945776697179859
 20
30.605472262300381
 30
0.0
 11
24.945776697179859
 21
30.605472262300381
 31
0.0
  0
LINE
  5
6DACD
  8
0
 62
     0
 10
24.923679610267769
 20
30.583375175388301
 30
0.0
 11
24.923679610267769
 21
30.583375175388301
 31
0.0
  0
LINE
  5
6DACE
  8
0
 62
     0
 10
24.9015825233557
 20
30.561278088476229
 30
0.0
 11
24.9015825233557
 21
30.561278088476229
 31
0.0
  0
LINE
  5
6DACF
  8
0
 62
     0
 10
24.87948543644363
 20
30.539181001564138
 30
0.0
 11
24.87948543644363
 21
30.539181001564138
 31
0.0
  0
LINE
  5
6DAD0
  8
0
 62
     0
 10
24.857388349531551
 20
30.517083914652069
 30
0.0
 11
24.857388349531551
 21
30.517083914652069
 31
0.0
  0
LINE
  5
6DAD1
  8
0
 62
     0
 10
24.83529126261946
 20
30.494986827739979
 30
0.0
 11
24.83529126261946
 21
30.494986827739979
 31
0.0
  0
LINE
  5
6DAD2
  8
0
 62
     0
 10
24.81319417570738
 20
30.472889740827888
 30
0.0
 11
24.81319417570738
 21
30.472889740827888
 31
0.0
  0
LINE
  5
6DAD3
  8
0
 62
     0
 10
24.791097088795301
 20
30.450792653915819
 30
0.0
 11
24.791097088795301
 21
30.450792653915819
 31
0.0
  0
LINE
  5
6DAD4
  8
0
 62
     0
 10
24.934728153723821
 20
30.638617892668499
 30
0.0
 11
24.934728153723821
 21
30.638617892668499
 31
0.0
  0
LINE
  5
6DAD5
  8
0
 62
     0
 10
24.912631066811741
 20
30.616520805756419
 30
0.0
 11
24.912631066811741
 21
30.616520805756419
 31
0.0
  0
LINE
  5
6DAD6
  8
0
 62
     0
 10
24.890533979899661
 20
30.59442371884434
 30
0.0
 11
24.890533979899661
 21
30.59442371884434
 31
0.0
  0
LINE
  5
6DAD7
  8
0
 62
     0
 10
24.868436892987589
 20
30.57232663193226
 30
0.0
 11
24.868436892987589
 21
30.57232663193226
 31
0.0
  0
LINE
  5
6DAD8
  8
0
 62
     0
 10
24.846339806075498
 20
30.55022954502018
 30
0.0
 11
24.846339806075498
 21
30.55022954502018
 31
0.0
  0
LINE
  5
6DAD9
  8
0
 62
     0
 10
24.824242719163411
 20
30.5281324581081
 30
0.0
 11
24.824242719163411
 21
30.5281324581081
 31
0.0
  0
LINE
  5
6DADA
  8
0
 62
     0
 10
24.802145632251339
 20
30.50603537119602
 30
0.0
 11
24.802145632251339
 21
30.50603537119602
 31
0.0
  0
LINE
  5
6DADB
  8
0
 62
     0
 10
24.87948543644363
 20
30.627569349212461
 30
0.0
 11
24.87948543644363
 21
30.627569349212461
 31
0.0
  0
LINE
  5
6DADC
  8
0
 62
     0
 10
24.857388349531551
 20
30.605472262300381
 30
0.0
 11
24.857388349531551
 21
30.605472262300381
 31
0.0
  0
LINE
  5
6DADD
  8
0
 62
     0
 10
24.83529126261946
 20
30.583375175388301
 30
0.0
 11
24.83529126261946
 21
30.583375175388301
 31
0.0
  0
LINE
  5
6DADE
  8
0
 62
     0
 10
24.81319417570738
 20
30.561278088476229
 30
0.0
 11
24.81319417570738
 21
30.561278088476229
 31
0.0
  0
LINE
  5
6DADF
  8
0
 62
     0
 10
24.791097088795301
 20
30.539181001564138
 30
0.0
 11
24.791097088795301
 21
30.539181001564138
 31
0.0
  0
LINE
  5
6DAE0
  8
0
 62
     0
 10
24.846339806075498
 20
30.638617892668499
 30
0.0
 11
24.846339806075498
 21
30.638617892668499
 31
0.0
  0
LINE
  5
6DAE1
  8
0
 62
     0
 10
24.824242719163411
 20
30.616520805756419
 30
0.0
 11
24.824242719163411
 21
30.616520805756419
 31
0.0
  0
LINE
  5
6DAE2
  8
0
 62
     0
 10
24.802145632251339
 20
30.59442371884434
 30
0.0
 11
24.802145632251339
 21
30.59442371884434
 31
0.0
  0
LINE
  5
6DAE3
  8
0
 62
     0
 10
24.791097088795301
 20
30.627569349212461
 30
0.0
 11
24.791097088795301
 21
30.627569349212461
 31
0.0
  0
ENDBLK
  5
6DAE5
  8
0
  0
BLOCK
  8
0
  2
*U39
 70
     1
 10
0.0
 20
0.0
 30
0.0
  3
*U39
  1

  0
SOLID
  5
6DAE7
  8
DIM
 10
25.859674909652249
 20
29.194549326343122
 30
0.0
 11
25.83373476206901
 21
29.252358198394081
 31
0.0
 12
25.8770215628805
 22
29.206087151075572
 32
0.0
 13
25.8770215628805
 23
29.206087151075572
 33
0.0
  0
POLYLINE
  5
6DAE8
  8
DIM
 66
     1
 10
0.0
 20
0.0
 30
0.0
  0
VERTEX
  5
6DC1E
  8
DIM
 10
25.868348236266389
 20
29.20031823870935
 30
0.0
  0
VERTEX
  5
6DC1F
  8
DIM
 10
25.929938257311282
 20
29.107720130993169
 30
0.0
  0
VERTEX
  5
6DC20
  8
DIM
 10
25.992438257311271
 20
29.107720130993169
 30
0.0
  0
SEQEND
  5
6DC21
  8
DIM
  0
ENDBLK
  5
6DAEE
  8
0
  0
BLOCK
  8
0
  2
*U40
 70
     1
 10
0.0
 20
0.0
 30
0.0
  3
*U40
  1

  0
TEXT
  5
6DAF0
  8
DIM
 10
26.033089689780581
 20
29.075404305618001
 30
0.0
 40
0.0625
  1
CWA-4
  7
STD
  0
ENDBLK
  5
6DAF2
  8
0
  0
BLOCK
  8
0
  2
*U41
 70
     1
 10
0.0
 20
0.0
 30
0.0
  3
*U41
  1

  0
SOLID
  5
6DAF4
  8
HATCH
  6
CONTINUOUS
 10
25.53004854533927
 20
30.67235819839393
 30
0.0
 11
25.53004854533927
 21
30.67235819839393
 31
0.0
 12
25.685048545339232
 22
30.67235819839393
 32
0.0
 13
25.685048545339232
 23
30.67235819839393
 33
0.0
  0
SOLID
  5
6DAF5
  8
HATCH
  6
CONTINUOUS
 10
25.53004854533927
 20
30.67235819839393
 30
0.0
 11
25.53004854533927
 21
30.622358198394089
 31
0.0
 12
25.685048545339011
 22
30.622358198394089
 32
0.0
 13
25.685048545339011
 23
30.622358198394089
 33
0.0
  0
SOLID
  5
6DAF6
  8
HATCH
  6
CONTINUOUS
 10
-25.53004854533927
 20
30.67235819839393
 30
0.0
 11
-25.685048545339232
 21
30.67235819839393
 31
0.0
 12
-25.685048545339011
 22
30.622358198394089
 32
0.0
 13
-25.685048545339011
 23
30.622358198394089
 33
0.0
210
0.0
220
0.0
230
-1.0
  0
SOLID
  5
6DAF7
  8
HATCH
  6
CONTINUOUS
 10
25.580048545339221
 20
30.622358198394089
 30
0.0
 11
25.580048545339221
 21
30.622358198394089
 31
0.0
 12
25.685048545339011
 22
30.622358198394089
 32
0.0
 13
25.685048545339011
 23
30.622358198394089
 33
0.0
  0
SOLID
  5
6DAF8
  8
HATCH
  6
CONTINUOUS
 10
25.53004854533927
 20
30.622358198394089
 30
0.0
 11
25.53004854533927
 21
30.112358198393981
 31
0.0
 12
25.580048545339451
 22
30.112358198393981
 32
0.0
 13
25.580048545339451
 23
30.112358198393981
 33
0.0
  0
SOLID
  5
6DAF9
  8
HATCH
  6
CONTINUOUS
 10
-25.53004854533927
 20
30.622358198394089
 30
0.0
 11
-25.580048545339221
 21
30.622358198394089
 31
0.0
 12
-25.580048545339451
 22
30.112358198393981
 32
0.0
 13
-25.580048545339451
 23
30.112358198393981
 33
0.0
210
0.0
220
0.0
230
-1.0
  0
SOLID
  5
6DAFA
  8
HATCH
  6
CONTINUOUS
 10
25.580048545339451
 20
30.112358198393981
 30
0.0
 11
25.580048545339451
 21
30.112358198393981
 31
0.0
 12
25.68504854533947
 22
30.112358198393981
 32
0.0
 13
25.68504854533947
 23
30.112358198393981
 33
0.0
  0
SOLID
  5
6DAFB
  8
HATCH
  6
CONTINUOUS
 10
25.53004854533927
 20
30.112358198393981
 30
0.0
 11
25.53004854533927
 21
30.06235819839403
 31
0.0
 12
25.685048545339349
 22
30.06235819839403
 32
0.0
 13
25.685048545339349
 23
30.06235819839403
 33
0.0
  0
SOLID
  5
6DAFC
  8
HATCH
  6
CONTINUOUS
 10
-25.53004854533927
 20
30.112358198393981
 30
0.0
 11
-25.68504854533947
 21
30.112358198393981
 31
0.0
 12
-25.685048545339349
 22
30.06235819839403
 32
0.0
 13
-25.685048545339349
 23
30.06235819839403
 33
0.0
210
0.0
220
0.0
230
-1.0
  0
SOLID
  5
6DAFD
  8
HATCH
  6
CONTINUOUS
 10
25.580048545339221
 20
30.06235819839403
 30
0.0
 11
25.580048545339221
 21
30.06235819839403
 31
0.0
 12
25.635048545339512
 22
30.06235819839403
 32
0.0
 13
25.635048545339512
 23
30.06235819839403
 33
0.0
  0
SOLID
  5
6DAFE
  8
HATCH
  6
CONTINUOUS
 10
25.53004854533927
 20
30.06235819839403
 30
0.0
 11
25.53004854533927
 21
30.012358198393962
 31
0.0
 12
25.580048545339221
 22
30.012358198393962
 32
0.0
 13
25.580048545339221
 23
30.012358198393962
 33
0.0
  0
SOLID
  5
6DAFF
  8
HATCH
  6
CONTINUOUS
 10
-25.53004854533927
 20
30.06235819839403
 30
0.0
 11
-25.580048545339221
 21
30.06235819839403
 31
0.0
 12
-25.580048545339221
 22
30.012358198393962
 32
0.0
 13
-25.580048545339221
 23
30.012358198393962
 33
0.0
210
0.0
220
0.0
230
-1.0
  0
SOLID
  5
6DB00
  8
HATCH
  6
CONTINUOUS
 10
25.635048545339512
 20
30.06235819839403
 30
0.0
 11
25.635048545339512
 21
30.012358198393962
 31
0.0
 12
25.685048545339232
 22
30.012358198393962
 32
0.0
 13
25.685048545339232
 23
30.012358198393962
 33
0.0
  0
SOLID
  5
6DB01
  8
HATCH
  6
CONTINUOUS
 10
-25.635048545339512
 20
30.06235819839403
 30
0.0
 11
-25.685048545339349
 21
30.06235819839403
 31
0.0
 12
-25.685048545339232
 22
30.012358198393962
 32
0.0
 13
-25.685048545339232
 23
30.012358198393962
 33
0.0
210
0.0
220
0.0
230
-1.0
  0
SOLID
  5
6DB02
  8
HATCH
  6
CONTINUOUS
 10
25.53004854533927
 20
30.012358198393962
 30
0.0
 11
25.53004854533927
 21
29.994680528864389
 31
0.0
 12
25.580048545339221
 22
29.994680528864389
 32
0.0
 13
25.580048545339221
 23
29.994680528864389
 33
0.0
  0
SOLID
  5
6DB03
  8
HATCH
  6
CONTINUOUS
 10
-25.53004854533927
 20
30.012358198393962
 30
0.0
 11
-25.580048545339221
 21
30.012358198393962
 31
0.0
 12
-25.580048545339221
 22
29.994680528864389
 32
0.0
 13
-25.580048545339221
 23
29.994680528864389
 33
0.0
210
0.0
220
0.0
230
-1.0
  0
SOLID
  5
6DB04
  8
HATCH
  6
CONTINUOUS
 10
25.635048545339512
 20
30.012358198393962
 30
0.0
 11
25.64237087580981
 21
29.994680528864389
 31
0.0
 12
25.677726214868951
 22
29.994680528864389
 32
0.0
 13
25.677726214868951
 23
29.994680528864389
 33
0.0
  0
SOLID
  5
6DB05
  8
HATCH
  6
CONTINUOUS
 10
-25.635048545339512
 20
30.012358198393962
 30
0.0
 11
-25.685048545339232
 21
30.012358198393962
 31
0.0
 12
-25.677726214868951
 22
29.994680528864389
 32
0.0
 13
-25.677726214868951
 23
29.994680528864389
 33
0.0
210
0.0
220
0.0
230
-1.0
  0
SOLID
  5
6DB06
  8
HATCH
  6
CONTINUOUS
 10
25.53004854533927
 20
29.994680528864389
 30
0.0
 11
25.53004854533927
 21
29.987358198394109
 31
0.0
 12
25.580048545339221
 22
29.987358198394109
 32
0.0
 13
25.580048545339221
 23
29.987358198394109
 33
0.0
  0
SOLID
  5
6DB07
  8
HATCH
  6
CONTINUOUS
 10
-25.53004854533927
 20
29.994680528864389
 30
0.0
 11
-25.580048545339221
 21
29.994680528864389
 31
0.0
 12
-25.580048545339221
 22
29.987358198394109
 32
0.0
 13
-25.580048545339221
 23
29.987358198394109
 33
0.0
210
0.0
220
0.0
230
-1.0
  0
SOLID
  5
6DB08
  8
HATCH
  6
CONTINUOUS
 10
-25.64237087580981
 20
29.994680528864389
 30
0.0
 11
-25.677726214868951
 21
29.994680528864389
 31
0.0
 12
-25.660048545339379
 22
29.987358198394109
 32
0.0
 13
-25.660048545339379
 23
29.987358198394109
 33
0.0
210
0.0
220
0.0
230
-1.0
  0
SOLID
  5
6DB09
  8
HATCH
  6
CONTINUOUS
 10
25.53004854533927
 20
29.987358198394109
 30
0.0
 11
25.53004854533927
 21
29.427358198393812
 31
0.0
 12
25.580048545339221
 22
29.427358198393812
 32
0.0
 13
25.580048545339221
 23
29.427358198393812
 33
0.0
  0
SOLID
  5
6DB0A
  8
HATCH
  6
CONTINUOUS
 10
-25.53004854533927
 20
29.987358198394109
 30
0.0
 11
-25.580048545339221
 21
29.987358198394109
 31
0.0
 12
-25.580048545339221
 22
29.427358198393812
 32
0.0
 13
-25.580048545339221
 23
29.427358198393812
 33
0.0
210
0.0
220
0.0
230
-1.0
  0
SOLID
  5
6DB0B
  8
HATCH
  6
CONTINUOUS
 10
25.53004854533927
 20
29.427358198393812
 30
0.0
 11
25.53004854533927
 21
29.420035867923509
 31
0.0
 12
25.580048545339221
 22
29.420035867923509
 32
0.0
 13
25.580048545339221
 23
29.420035867923509
 33
0.0
  0
SOLID
  5
6DB0C
  8
HATCH
  6
CONTINUOUS
 10
-25.53004854533927
 20
29.427358198393812
 30
0.0
 11
-25.580048545339221
 21
29.427358198393812
 31
0.0
 12
-25.580048545339221
 22
29.420035867923509
 32
0.0
 13
-25.580048545339221
 23
29.420035867923509
 33
0.0
210
0.0
220
0.0
230
-1.0
  0
SOLID
  5
6DB0D
  8
HATCH
  6
CONTINUOUS
 10
25.660048545339151
 20
29.427358198393812
 30
0.0
 11
25.642370875809579
 21
29.420035867923509
 31
0.0
 12
25.67772621486872
 22
29.420035867923509
 32
0.0
 13
25.67772621486872
 23
29.420035867923509
 33
0.0
  0
SOLID
  5
6DB0E
  8
HATCH
  6
CONTINUOUS
 10
25.53004854533927
 20
29.420035867923509
 30
0.0
 11
25.53004854533927
 21
29.402358198393941
 31
0.0
 12
25.580048545339221
 22
29.402358198393941
 32
0.0
 13
25.580048545339221
 23
29.402358198393941
 33
0.0
  0
SOLID
  5
6DB0F
  8
HATCH
  6
CONTINUOUS
 10
-25.53004854533927
 20
29.420035867923509
 30
0.0
 11
-25.580048545339221
 21
29.420035867923509
 31
0.0
 12
-25.580048545339221
 22
29.402358198393941
 32
0.0
 13
-25.580048545339221
 23
29.402358198393941
 33
0.0
210
0.0
220
0.0
230
-1.0
  0
SOLID
  5
6DB10
  8
HATCH
  6
CONTINUOUS
 10
25.642370875809579
 20
29.420035867923509
 30
0.0
 11
25.635048545339281
 21
29.402358198393941
 31
0.0
 12
25.685048545339011
 22
29.402358198393941
 32
0.0
 13
25.685048545339011
 23
29.402358198393941
 33
0.0
  0
SOLID
  5
6DB11
  8
HATCH
  6
CONTINUOUS
 10
-25.642370875809579
 20
29.420035867923509
 30
0.0
 11
-25.67772621486872
 21
29.420035867923509
 31
0.0
 12
-25.685048545339011
 22
29.402358198393941
 32
0.0
 13
-25.685048545339011
 23
29.402358198393941
 33
0.0
210
0.0
220
0.0
230
-1.0
  0
SOLID
  5
6DB12
  8
HATCH
  6
CONTINUOUS
 10
25.53004854533927
 20
29.402358198393941
 30
0.0
 11
25.53004854533927
 21
29.302358198394039
 31
0.0
 12
25.580048545339221
 22
29.302358198394039
 32
0.0
 13
25.580048545339221
 23
29.302358198394039
 33
0.0
  0
SOLID
  5
6DB13
  8
HATCH
  6
CONTINUOUS
 10
-25.53004854533927
 20
29.402358198393941
 30
0.0
 11
-25.580048545339221
 21
29.402358198393941
 31
0.0
 12
-25.580048545339221
 22
29.302358198394039
 32
0.0
 13
-25.580048545339221
 23
29.302358198394039
 33
0.0
210
0.0
220
0.0
230
-1.0
  0
SOLID
  5
6DB14
  8
HATCH
  6
CONTINUOUS
 10
25.635048545339281
 20
29.402358198393941
 30
0.0
 11
25.635048545339281
 21
29.302358198394039
 31
0.0
 12
25.685048545339232
 22
29.302358198394039
 32
0.0
 13
25.685048545339232
 23
29.302358198394039
 33
0.0
  0
SOLID
  5
6DB15
  8
HATCH
  6
CONTINUOUS
 10
-25.635048545339281
 20
29.402358198393941
 30
0.0
 11
-25.685048545339011
 21
29.402358198393941
 31
0.0
 12
-25.685048545339232
 22
29.302358198394039
 32
0.0
 13
-25.685048545339232
 23
29.302358198394039
 33
0.0
210
0.0
220
0.0
230
-1.0
  0
SOLID
  5
6DB16
  8
HATCH
  6
CONTINUOUS
 10
25.580048545339221
 20
29.302358198394039
 30
0.0
 11
25.580048545339221
 21
29.302358198394039
 31
0.0
 12
25.635048545339281
 22
29.302358198394039
 32
0.0
 13
25.635048545339281
 23
29.302358198394039
 33
0.0
  0
SOLID
  5
6DB17
  8
HATCH
  6
CONTINUOUS
 10
25.685048545339232
 20
29.302358198394039
 30
0.0
 11
25.685048545339232
 21
29.302358198394039
 31
0.0
 12
26.46754854533927
 22
29.302358198394039
 32
0.0
 13
26.46754854533927
 23
29.302358198394039
 33
0.0
  0
SOLID
  5
6DB18
  8
HATCH
  6
CONTINUOUS
 10
25.53004854533927
 20
29.302358198394039
 30
0.0
 11
25.53004854533927
 21
29.252358198394081
 31
0.0
 12
26.46754854533927
 22
29.252358198394081
 32
0.0
 13
26.46754854533927
 23
29.252358198394081
 33
0.0
  0
SOLID
  5
6DB19
  8
HATCH
  6
CONTINUOUS
 10
-25.53004854533927
 20
29.302358198394039
 30
0.0
 11
-26.46754854533927
 21
29.302358198394039
 31
0.0
 12
-26.46754854533927
 22
29.252358198394081
 32
0.0
 13
-26.46754854533927
 23
29.252358198394081
 33
0.0
210
0.0
220
0.0
230
-1.0
  0
SOLID
  5
6DB1A
  8
HATCH
  6
CONTINUOUS
 10
25.53004854533927
 20
29.252358198394081
 30
0.0
 11
25.53004854533927
 21
29.252358198394081
 31
0.0
 12
26.46754854533927
 22
29.252358198394081
 32
0.0
 13
26.46754854533927
 23
29.252358198394081
 33
0.0
  0
LINE
  5
6DB1B
  8
HATCH
  6
CONTINUOUS
 10
25.53004854533927
 20
30.67235819839393
 30
0.0
 11
25.685048545339232
 21
30.67235819839393
 31
0.0
  0
LINE
  5
6DB1C
  8
HATCH
  6
CONTINUOUS
 10
25.53004854533927
 20
30.67235819839393
 30
0.0
 11
25.53004854533927
 21
30.622358198394089
 31
0.0
  0
LINE
  5
6DB1D
  8
HATCH
  6
CONTINUOUS
 10
25.685048545339232
 20
30.67235819839393
 30
0.0
 11
25.685048545339011
 21
30.622358198394089
 31
0.0
  0
LINE
  5
6DB1E
  8
HATCH
  6
CONTINUOUS
 10
25.580048545339221
 20
30.622358198394089
 30
0.0
 11
25.685048545339011
 21
30.622358198394089
 31
0.0
  0
LINE
  5
6DB1F
  8
HATCH
  6
CONTINUOUS
 10
25.53004854533927
 20
30.622358198394089
 30
0.0
 11
25.53004854533927
 21
30.112358198393981
 31
0.0
  0
LINE
  5
6DB20
  8
HATCH
  6
CONTINUOUS
 10
25.580048545339221
 20
30.622358198394089
 30
0.0
 11
25.580048545339451
 21
30.112358198393981
 31
0.0
  0
LINE
  5
6DB21
  8
HATCH
  6
CONTINUOUS
 10
25.580048545339451
 20
30.112358198393981
 30
0.0
 11
25.68504854533947
 21
30.112358198393981
 31
0.0
  0
LINE
  5
6DB22
  8
HATCH
  6
CONTINUOUS
 10
25.53004854533927
 20
30.112358198393981
 30
0.0
 11
25.53004854533927
 21
30.06235819839403
 31
0.0
  0
LINE
  5
6DB23
  8
HATCH
  6
CONTINUOUS
 10
25.68504854533947
 20
30.112358198393981
 30
0.0
 11
25.685048545339349
 21
30.06235819839403
 31
0.0
  0
LINE
  5
6DB24
  8
HATCH
  6
CONTINUOUS
 10
25.580048545339221
 20
30.06235819839403
 30
0.0
 11
25.635048545339512
 21
30.06235819839403
 31
0.0
  0
LINE
  5
6DB25
  8
HATCH
  6
CONTINUOUS
 10
25.53004854533927
 20
30.06235819839403
 30
0.0
 11
25.53004854533927
 21
30.012358198393962
 31
0.0
  0
LINE
  5
6DB26
  8
HATCH
  6
CONTINUOUS
 10
25.580048545339221
 20
30.06235819839403
 30
0.0
 11
25.580048545339221
 21
30.012358198393962
 31
0.0
  0
LINE
  5
6DB27
  8
HATCH
  6
CONTINUOUS
 10
25.635048545339512
 20
30.06235819839403
 30
0.0
 11
25.635048545339512
 21
30.012358198393962
 31
0.0
  0
LINE
  5
6DB28
  8
HATCH
  6
CONTINUOUS
 10
25.685048545339349
 20
30.06235819839403
 30
0.0
 11
25.685048545339232
 21
30.012358198393962
 31
0.0
  0
LINE
  5
6DB29
  8
HATCH
  6
CONTINUOUS
 10
25.53004854533927
 20
30.012358198393962
 30
0.0
 11
25.53004854533927
 21
29.994680528864389
 31
0.0
  0
LINE
  5
6DB2A
  8
HATCH
  6
CONTINUOUS
 10
25.580048545339221
 20
30.012358198393962
 30
0.0
 11
25.580048545339221
 21
29.994680528864389
 31
0.0
  0
LINE
  5
6DB2B
  8
HATCH
  6
CONTINUOUS
 10
25.635048545339512
 20
30.012358198393962
 30
0.0
 11
25.64237087580981
 21
29.994680528864389
 31
0.0
  0
LINE
  5
6DB2C
  8
HATCH
  6
CONTINUOUS
 10
25.685048545339232
 20
30.012358198393962
 30
0.0
 11
25.677726214868951
 21
29.994680528864389
 31
0.0
  0
LINE
  5
6DB2D
  8
HATCH
  6
CONTINUOUS
 10
25.53004854533927
 20
29.994680528864389
 30
0.0
 11
25.53004854533927
 21
29.987358198394109
 31
0.0
  0
LINE
  5
6DB2E
  8
HATCH
  6
CONTINUOUS
 10
25.580048545339221
 20
29.994680528864389
 30
0.0
 11
25.580048545339221
 21
29.987358198394109
 31
0.0
  0
LINE
  5
6DB2F
  8
HATCH
  6
CONTINUOUS
 10
25.677726214868951
 20
29.994680528864389
 30
0.0
 11
25.660048545339379
 21
29.987358198394109
 31
0.0
  0
LINE
  5
6DB30
  8
HATCH
  6
CONTINUOUS
 10
25.660048545339379
 20
29.987358198394109
 30
0.0
 11
25.64237087580981
 21
29.994680528864389
 31
0.0
  0
LINE
  5
6DB31
  8
HATCH
  6
CONTINUOUS
 10
25.53004854533927
 20
29.987358198394109
 30
0.0
 11
25.53004854533927
 21
29.427358198393812
 31
0.0
  0
LINE
  5
6DB32
  8
HATCH
  6
CONTINUOUS
 10
25.580048545339221
 20
29.987358198394109
 30
0.0
 11
25.580048545339221
 21
29.427358198393812
 31
0.0
  0
LINE
  5
6DB33
  8
HATCH
  6
CONTINUOUS
 10
25.53004854533927
 20
29.427358198393812
 30
0.0
 11
25.53004854533927
 21
29.420035867923509
 31
0.0
  0
LINE
  5
6DB34
  8
HATCH
  6
CONTINUOUS
 10
25.580048545339221
 20
29.427358198393812
 30
0.0
 11
25.580048545339221
 21
29.420035867923509
 31
0.0
  0
LINE
  5
6DB35
  8
HATCH
  6
CONTINUOUS
 10
25.660048545339151
 20
29.427358198393812
 30
0.0
 11
25.642370875809579
 21
29.420035867923509
 31
0.0
  0
LINE
  5
6DB36
  8
HATCH
  6
CONTINUOUS
 10
25.67772621486872
 20
29.420035867923509
 30
0.0
 11
25.660048545339151
 21
29.427358198393812
 31
0.0
  0
LINE
  5
6DB37
  8
HATCH
  6
CONTINUOUS
 10
25.53004854533927
 20
29.420035867923509
 30
0.0
 11
25.53004854533927
 21
29.402358198393941
 31
0.0
  0
LINE
  5
6DB38
  8
HATCH
  6
CONTINUOUS
 10
25.580048545339221
 20
29.420035867923509
 30
0.0
 11
25.580048545339221
 21
29.402358198393941
 31
0.0
  0
LINE
  5
6DB39
  8
HATCH
  6
CONTINUOUS
 10
25.642370875809579
 20
29.420035867923509
 30
0.0
 11
25.635048545339281
 21
29.402358198393941
 31
0.0
  0
LINE
  5
6DB3A
  8
HATCH
  6
CONTINUOUS
 10
25.67772621486872
 20
29.420035867923509
 30
0.0
 11
25.685048545339011
 21
29.402358198393941
 31
0.0
  0
LINE
  5
6DB3B
  8
HATCH
  6
CONTINUOUS
 10
25.53004854533927
 20
29.402358198393941
 30
0.0
 11
25.53004854533927
 21
29.302358198394039
 31
0.0
  0
LINE
  5
6DB3C
  8
HATCH
  6
CONTINUOUS
 10
25.580048545339221
 20
29.402358198393941
 30
0.0
 11
25.580048545339221
 21
29.302358198394039
 31
0.0
  0
LINE
  5
6DB3D
  8
HATCH
  6
CONTINUOUS
 10
25.635048545339281
 20
29.402358198393941
 30
0.0
 11
25.635048545339281
 21
29.302358198394039
 31
0.0
  0
LINE
  5
6DB3E
  8
HATCH
  6
CONTINUOUS
 10
25.685048545339011
 20
29.402358198393941
 30
0.0
 11
25.685048545339232
 21
29.302358198394039
 31
0.0
  0
LINE
  5
6DB3F
  8
HATCH
  6
CONTINUOUS
 10
25.580048545339221
 20
29.302358198394039
 30
0.0
 11
25.635048545339281
 21
29.302358198394039
 31
0.0
  0
LINE
  5
6DB40
  8
HATCH
  6
CONTINUOUS
 10
25.685048545339232
 20
29.302358198394039
 30
0.0
 11
26.46754854533927
 21
29.302358198394039
 31
0.0
  0
LINE
  5
6DB41
  8
HATCH
  6
CONTINUOUS
 10
25.53004854533927
 20
29.302358198394039
 30
0.0
 11
25.53004854533927
 21
29.252358198394081
 31
0.0
  0
LINE
  5
6DB42
  8
HATCH
  6
CONTINUOUS
 10
26.46754854533927
 20
29.302358198394039
 30
0.0
 11
26.46754854533927
 21
29.252358198394081
 31
0.0
  0
LINE
  5
6DB43
  8
HATCH
  6
CONTINUOUS
 10
25.53004854533927
 20
29.252358198394081
 30
0.0
 11
26.46754854533927
 21
29.252358198394081
 31
0.0
  0
ENDBLK
  5
6DB45
  8
0
  0
ENDSEC
  0
SECTION
  2
ENTITIES
  0
POLYLINE
  5
34CC3
  8
0
  6
CONTINUOUS
 66
     1
 10
0.0
 20
0.0
 30
0.0
 70
     1
  0
VERTEX
  5
6DC02
  8
0
  6
CONTINUOUS
 10
25.635048545339512
 20
30.012358198393962
 30
0.0
 42
1.0
  0
VERTEX
  5
6DC03
  8
0
  6
CONTINUOUS
 10
25.685048545339232
 20
30.012358198393962
 30
0.0
  0
VERTEX
  5
6DC04
  8
0
  6
CONTINUOUS
 10
25.68504854533947
 20
30.112358198393981
 30
0.0
  0
VERTEX
  5
6DC05
  8
0
  6
CONTINUOUS
 10
25.580048545339451
 20
30.112358198393981
 30
0.0
  0
VERTEX
  5
6DC06
  8
0
  6
CONTINUOUS
 10
25.580048545339221
 20
30.622358198394089
 30
0.0
  0
VERTEX
  5
6DC07
  8
0
  6
CONTINUOUS
 10
25.685048545339011
 20
30.622358198394089
 30
0.0
  0
VERTEX
  5
6DC08
  8
0
  6
CONTINUOUS
 10
25.685048545339232
 20
30.67235819839393
 30
0.0
  0
VERTEX
  5
6DC09
  8
0
  6
CONTINUOUS
 10
25.53004854533927
 20
30.67235819839404
 30
0.0
  0
VERTEX
  5
6DC0A
  8
0
  6
CONTINUOUS
 10
25.53004854533927
 20
29.252358198394081
 30
0.0
  0
VERTEX
  5
6DC0B
  8
0
  6
CONTINUOUS
 10
26.46754854533927
 20
29.252358198394081
 30
0.0
  0
VERTEX
  5
6DC0C
  8
0
  6
CONTINUOUS
 10
26.46754854533927
 20
29.302358198394039
 30
0.0
  0
VERTEX
  5
6DC0D
  8
0
  6
CONTINUOUS
 10
25.685048545339232
 20
29.302358198394039
 30
0.0
  0
VERTEX
  5
6DC0E
  8
0
  6
CONTINUOUS
 10
25.685048545339011
 20
29.402358198393941
 30
0.0
 42
1.0
  0
VERTEX
  5
6DC0F
  8
0
  6
CONTINUOUS
 10
25.635048545339281
 20
29.402358198393941
 30
0.0
  0
VERTEX
  5
6DC10
  8
0
  6
CONTINUOUS
 10
25.635048545339281
 20
29.302358198394039
 30
0.0
  0
VERTEX
  5
6DC11
  8
0
  6
CONTINUOUS
 10
25.580048545339221
 20
29.302358198394039
 30
0.0
  0
VERTEX
  5
6DC12
  8
0
  6
CONTINUOUS
 10
25.580048545339221
 20
30.06235819839403
 30
0.0
  0
VERTEX
  5
6DC13
  8
0
  6
CONTINUOUS
 10
25.635048545339512
 20
30.06235819839403
 30
0.0
  0
SEQEND
  5
6DC14
  8
0
  6
CONTINUOUS
  0
LINE
  5
34CC6
  8
GRID
  6
CONTINUOUS
 10
24.74879854533927
 20
30.67235819839404
 30
0.0
 11
24.74879854533927
 21
28.283994204824499
 31
0.0
  0
POLYLINE
  5
34CC7
  8
DETAIL
 66
     1
 10
0.0
 20
0.0
 30
0.0
 70
     1
1001
ACAD
1000
ASC_BOUNDS
1002
{
1070
    19
1005
34FA1
1005
34FA1
1005
34FA1
1005
34FA1
1005
34FA1
1002
}
  0
VERTEX
  5
6DC15
  8
DETAIL
 10
25.49879854533927
 20
30.64110819839404
 30
0.0
  0
VERTEX
  5
6DC16
  8
DETAIL
 10
24.78004854533927
 20
30.64110819839404
 30
0.0
  0
VERTEX
  5
6DC17
  8
DETAIL
 10
24.78004854533927
 20
29.95360819839404
 30
0.0
  0
VERTEX
  5
6DC18
  8
DETAIL
 10
25.49879854533927
 20
29.95360819839404
 30
0.0
  0
SEQEND
  5
6DC19
  8
DETAIL
  0
INSERT
  5
34CC9
  8
HATCH
  6
CONTINUOUS
  2
*X2
 10
23.654729437260212
 20
27.126602961840369
 30
0.0
1001
ACAD
1000
HATCH
1002
{
1070
    19
1000
ANSI31
1040
0.5
1040
0.0
1000
R14_HATCH_DATA
1000
1360
1011
24.654729437260212
1021
0.0
1031
0.0
1021
27.126602961840369
1031
0.0
1011
23.654729437260212
1021
0.0
1031
0.0
1021
28.126602961840369
1031
0.0
1011
23.654729437260212
1021
0.0
1031
0.0
1021
27.126602961840369
1031
1.0
1040
0.0
1010
0.0
1020
0.0
1030
1.0
1000
ANSI31
1070
     0
1070
     0
1071
        1
1071
        7
1070
     0
1070
     1
1071
        4
1040
1.0940691080790541
1040
3.5457552365536671
1040
0.5940691080790546
1040
3.5457552365536671
1040
0.5940691080790546
1040
1.1573912429841251
1040
1.0940691080790541
1040
1.1573912429841251
1071
        0
1070
     0
1070
     1
1040
0.0
1040
0.5
1070
     0
1070
     1
1040
0.7853981633974483
1040
-0.3184156662068176
1040
1.0849155859086741
1040
-0.0441941738241592
1040
0.0441941738241592
1070
     0
1040
0.0053489345232408
1071
        1
1040
0.9727132931900824
1040
3.1310165406386901
1040
0.0
1002
}
  0
LINE
  5
34CCB
  8
DETAIL
  6
CONTINUOUS
 10
24.330048545339341
 20
30.36735819839404
 30
0.0
 11
24.400361045339341
 21
30.33220194839403
 31
0.0
1001
ACDBBLOCKREPETAG
1070
     1
1071
        0
1005
34CCB
  0
LINE
  5
34CCC
  8
DETAIL
  6
CONTINUOUS
 10
24.350203922849541
 20
30.390516884817501
 30
0.0
 11
24.420218859273032
 21
30.320501948394011
 31
0.0
1001
ACDBBLOCKREPETAG
1070
     1
1071
        1
1005
34CCC
  0
LINE
  5
34CCD
  8
DETAIL
  6
CONTINUOUS
 10
24.344688489956258
 20
30.38775916837093
 30
0.0
 11
24.411945709933121
 21
30.320501948394011
 31
0.0
1001
ACDBBLOCKREPETAG
1070
     1
1071
        2
1005
34CCD
  0
LINE
  5
34CCE
  8
DETAIL
  6
CONTINUOUS
 10
24.39507582173524
 20
30.399871836591959
 30
0.0
 11
24.358924587961798
 21
30.38179621970524
 31
0.0
1001
ACDBBLOCKREPETAG
1070
     1
1071
        3
1005
34CCE
  0
LINE
  5
34CCF
  8
DETAIL
  6
CONTINUOUS
 10
24.35340915506853
 20
30.379038503258659
 30
0.0
 11
24.330048545339341
 21
30.36735819839404
 31
0.0
1001
ACDBBLOCKREPETAG
1070
     1
1071
        4
1005
34CCF
  0
LINE
  5
34CD0
  8
DETAIL
  6
CONTINUOUS
 10
24.350203922849541
 20
30.390516884817501
 30
0.0
 11
24.344688489956258
 21
30.38775916837093
 31
0.0
1001
ACDBBLOCKREPETAG
1070
     1
1071
        5
1005
34CD0
  0
LINE
  5
34CD1
  8
DETAIL
  6
CONTINUOUS
 10
24.420218859273032
 20
30.320501948394011
 30
0.0
 11
24.411945709933121
 21
30.320501948394011
 31
0.0
1001
ACDBBLOCKREPETAG
1070
     1
1071
        6
1005
34CD1
  0
LINE
  5
34CD2
  8
DETAIL
  6
CONTINUOUS
 10
25.318233209933151
 20
30.414214448394048
 30
0.0
 11
25.411945709933171
 21
30.320501948394011
 31
0.0
1001
ACDBBLOCKREPETAG
1070
     1
1071
        7
1005
34CD2
1001
ACAD
1000
ASC_BOUNDS
1002
{
1070
    19
1005
34FA1
1005
34FA1
1005
34FA1
1002
}
  0
LINE
  5
34CD3
  8
DETAIL
  6
CONTINUOUS
 10
25.326506359273051
 20
30.414214448394048
 30
0.0
 11
25.420218859273032
 21
30.320501948394011
 31
0.0
1001
ACDBBLOCKREPETAG
1070
     1
1071
        8
1005
34CD3
1001
ACAD
1000
ASC_BOUNDS
1002
{
1070
    19
1005
34FA1
1005
34FA1
1005
34FA1
1002
}
  0
LINE
  5
34CD4
  8
DETAIL
  6
CONTINUOUS
 10
25.326506359273051
 20
30.414214448394048
 30
0.0
 11
25.318233209933151
 21
30.414214448394048
 31
0.0
1001
ACDBBLOCKREPETAG
1070
     1
1071
        9
1005
34CD4
1001
ACAD
1000
ASC_BOUNDS
1002
{
1070
    19
1005
34FA1
1002
}
  0
LINE
  5
34CD5
  8
DETAIL
  6
CONTINUOUS
 10
25.32993320993317
 20
30.40251444839404
 30
0.0
 11
25.275706359273059
 21
30.40251444839404
 31
0.0
1001
ACDBBLOCKREPETAG
1070
     1
1071
       10
1005
34CD5
1001
ACAD
1000
ASC_BOUNDS
1002
{
1070
    19
1005
34FA1
1005
34FA1
1002
}
  0
LINE
  5
34CD6
  8
DETAIL
  6
CONTINUOUS
 10
25.267433209933159
 20
30.40251444839404
 30
0.0
 11
25.21320635927307
 21
30.40251444839404
 31
0.0
1001
ACDBBLOCKREPETAG
1070
     1
1071
       35
1005
34CD6
1001
ACAD
1000
ASC_BOUNDS
1002
{
1070
    19
1005
34FA1
1005
34FA1
1002
}
  0
LINE
  5
34CD7
  8
DETAIL
  6
CONTINUOUS
 10
24.454933209933159
 20
30.40251444839404
 30
0.0
 11
24.400361045339391
 21
30.40251444839404
 31
0.0
1001
ACDBBLOCKREPETAG
1070
     1
1071
       38
1005
34CD7
  0
LINE
  5
34CD8
  8
DETAIL
  6
CONTINUOUS
 10
25.420218859273032
 20
30.320501948394011
 30
0.0
 11
25.411945709933171
 21
30.320501948394011
 31
0.0
1001
ACDBBLOCKREPETAG
1070
     1
1071
       11
1005
34CD8
1001
ACAD
1000
ASC_BOUNDS
1002
{
1070
    19
1005
34FA1
1002
}
  0
LINE
  5
34CD9
  8
DETAIL
  6
CONTINUOUS
 10
25.33820635927307
 20
30.40251444839404
 30
0.0
 11
25.41964038974362
 21
30.40251444839404
 31
0.0
1001
ACDBBLOCKREPETAG
1070
     1
1071
       40
1005
34CD9
1001
ACAD
1000
ASC_BOUNDS
1002
{
1070
    19
1005
34FA1
1005
34FA1
1002
}
  0
ARC
  5
34CDB
  8
DETAIL
  6
CONTINUOUS
 10
25.40924953105257
 20
30.114032291625701
 30
0.0
 40
0.2184169615179908
 50
38.55722347170326
 51
90.25597473435441
1001
ACDBBLOCKREPETAG
1070
     1
1071
       42
1005
34CDB
1001
ACAD
1000
ASC_BOUNDS
1002
{
1070
    19
1005
34FA1
1005
34FA1
1002
}
  0
LINE
  5
34CDC
  8
DETAIL
  6
CONTINUOUS
 10
25.400000584922928
 20
30.332447073404261
 30
0.0
 11
25.345773734262799
 21
30.332447073404261
 31
0.0
1001
ACDBBLOCKREPETAG
1070
     1
1071
       22
1005
34CDC
1001
ACAD
1000
ASC_BOUNDS
1002
{
1070
    19
1005
34FA1
1005
34FA1
1002
}
  0
LINE
  5
34CDD
  8
DETAIL
  6
CONTINUOUS
 10
25.337500584922928
 20
30.332447073404261
 30
0.0
 11
25.283273734262799
 21
30.332447073404261
 31
0.0
1001
ACDBBLOCKREPETAG
1070
     1
1071
       36
1005
34CDD
1001
ACAD
1000
ASC_BOUNDS
1002
{
1070
    19
1005
34FA1
1005
34FA1
1002
}
  0
LINE
  5
34CDE
  8
DETAIL
  6
CONTINUOUS
 10
24.525000584922928
 20
30.332447073404261
 30
0.0
 11
24.470773734262799
 21
30.332447073404261
 31
0.0
1001
ACDBBLOCKREPETAG
1070
     1
1071
       37
1005
34CDE
  0
LINE
  5
34CDF
  8
DETAIL
  6
CONTINUOUS
 10
24.462500584922928
 20
30.332447073404261
 30
0.0
 11
24.408273734262789
 21
30.332447073404261
 31
0.0
1001
ACDBBLOCKREPETAG
1070
     1
1071
       39
1005
34CDF
  0
LINE
  5
34CE0
  8
DETAIL
  6
CONTINUOUS
 10
25.255733209933151
 20
30.414214448394048
 30
0.0
 11
25.349445709933178
 21
30.320501948394011
 31
0.0
1001
ACDBBLOCKREPETAG
1070
     1
1071
       23
1005
34CE0
1001
ACAD
1000
ASC_BOUNDS
1002
{
1070
    19
1005
34FA1
1005
34FA1
1005
34FA1
1002
}
  0
LINE
  5
34CE1
  8
DETAIL
  6
CONTINUOUS
 10
25.264006359273051
 20
30.414214448394048
 30
0.0
 11
25.357718859273032
 21
30.320501948394011
 31
0.0
1001
ACDBBLOCKREPETAG
1070
     1
1071
       24
1005
34CE1
1001
ACAD
1000
ASC_BOUNDS
1002
{
1070
    19
1005
34FA1
1005
34FA1
1005
34FA1
1002
}
  0
LINE
  5
34CE2
  8
DETAIL
  6
CONTINUOUS
 10
25.264006359273051
 20
30.414214448394048
 30
0.0
 11
25.255733209933151
 21
30.414214448394048
 31
0.0
1001
ACDBBLOCKREPETAG
1070
     1
1071
       25
1005
34CE2
1001
ACAD
1000
ASC_BOUNDS
1002
{
1070
    19
1005
34FA1
1002
}
  0
LINE
  5
34CE3
  8
DETAIL
  6
CONTINUOUS
 10
25.357718859273032
 20
30.320501948394011
 30
0.0
 11
25.349445709933178
 21
30.320501948394011
 31
0.0
1001
ACDBBLOCKREPETAG
1070
     1
1071
       26
1005
34CE3
1001
ACAD
1000
ASC_BOUNDS
1002
{
1070
    19
1005
34FA1
1002
}
  0
LINE
  5
34CE4
  8
DETAIL
  6
CONTINUOUS
 10
24.44323320993314
 20
30.414214448394048
 30
0.0
 11
24.536945709933178
 21
30.320501948394011
 31
0.0
1001
ACDBBLOCKREPETAG
1070
     1
1071
       27
1005
34CE4
  0
LINE
  5
34CE5
  8
DETAIL
  6
CONTINUOUS
 10
24.451506359273051
 20
30.414214448394048
 30
0.0
 11
24.545218859273032
 21
30.320501948394011
 31
0.0
1001
ACDBBLOCKREPETAG
1070
     1
1071
       28
1005
34CE5
  0
LINE
  5
34CE6
  8
DETAIL
  6
CONTINUOUS
 10
24.451506359273051
 20
30.414214448394048
 30
0.0
 11
24.44323320993314
 21
30.414214448394048
 31
0.0
1001
ACDBBLOCKREPETAG
1070
     1
1071
       29
1005
34CE6
  0
LINE
  5
34CE7
  8
DETAIL
  6
CONTINUOUS
 10
24.545218859273032
 20
30.320501948394011
 30
0.0
 11
24.536945709933178
 21
30.320501948394011
 31
0.0
1001
ACDBBLOCKREPETAG
1070
     1
1071
       30
1005
34CE7
  0
LINE
  5
34CE8
  8
DETAIL
  6
CONTINUOUS
 10
24.380733209933151
 20
30.414214448394048
 30
0.0
 11
24.474445709933171
 21
30.320501948394011
 31
0.0
1001
ACDBBLOCKREPETAG
1070
     1
1071
       31
1005
34CE8
  0
LINE
  5
34CE9
  8
DETAIL
  6
CONTINUOUS
 10
24.389006359273051
 20
30.414214448394048
 30
0.0
 11
24.482718859273032
 21
30.320501948394011
 31
0.0
1001
ACDBBLOCKREPETAG
1070
     1
1071
       32
1005
34CE9
  0
LINE
  5
34CEA
  8
DETAIL
  6
CONTINUOUS
 10
24.389006359273051
 20
30.414214448394048
 30
0.0
 11
24.380733209933151
 21
30.414214448394048
 31
0.0
1001
ACDBBLOCKREPETAG
1070
     1
1071
       33
1005
34CEA
  0
LINE
  5
34CEB
  8
DETAIL
  6
CONTINUOUS
 10
24.482718859273032
 20
30.320501948394011
 30
0.0
 11
24.474445709933171
 21
30.320501948394011
 31
0.0
1001
ACDBBLOCKREPETAG
1070
     1
1071
       34
1005
34CEB
  0
ARC
  5
34CEC
  8
DETAIL
  6
CONTINUOUS
 10
25.40924953105257
 20
30.620684105162368
 30
0.0
 40
0.2184169615179908
 50
272.72678982455648
 51
321.44277652829669
1001
ACDBBLOCKREPETAG
1070
     1
1071
       43
1005
34CEC
1001
ACAD
1000
ASC_BOUNDS
1002
{
1070
    19
1005
34FA1
1005
34FA1
1002
}
  0
LINE
  5
34CED
  8
DETAIL
  6
CONTINUOUS
 10
25.204933209933159
 20
30.40251444839404
 30
0.0
 11
25.150706359273059
 21
30.40251444839404
 31
0.0
1001
ACDBBLOCKREPETAG
1070
     1
1071
       35
1005
34CED
1001
ACDBBLOCKARRAYACTIONTAG
1070
     1
1001
ACAD
1000
ASC_BOUNDS
1002
{
1070
    19
1005
34FA1
1005
34FA1
1002
}
  0
LINE
  5
34CEE
  8
DETAIL
  6
CONTINUOUS
 10
25.275000584922928
 20
30.332447073404261
 30
0.0
 11
25.220773734262799
 21
30.332447073404261
 31
0.0
1001
ACDBBLOCKREPETAG
1070
     1
1071
       36
1005
34CEE
1001
ACDBBLOCKARRAYACTIONTAG
1070
     1
1001
ACAD
1000
ASC_BOUNDS
1002
{
1070
    19
1005
34FA1
1005
34FA1
1002
}
  0
LINE
  5
34CEF
  8
DETAIL
  6
CONTINUOUS
 10
25.193233209933151
 20
30.414214448394048
 30
0.0
 11
25.286945709933178
 21
30.320501948394011
 31
0.0
1001
ACDBBLOCKREPETAG
1070
     1
1071
       23
1005
34CEF
1001
ACDBBLOCKARRAYACTIONTAG
1070
     1
1001
ACAD
1000
ASC_BOUNDS
1002
{
1070
    19
1005
34FA1
1005
34FA1
1005
34FA1
1002
}
  0
LINE
  5
34CF0
  8
DETAIL
  6
CONTINUOUS
 10
25.201506359273051
 20
30.414214448394048
 30
0.0
 11
25.295218859273032
 21
30.320501948394011
 31
0.0
1001
ACDBBLOCKREPETAG
1070
     1
1071
       24
1005
34CF0
1001
ACDBBLOCKARRAYACTIONTAG
1070
     1
1001
ACAD
1000
ASC_BOUNDS
1002
{
1070
    19
1005
34FA1
1005
34FA1
1005
34FA1
1002
}
  0
LINE
  5
34CF1
  8
DETAIL
  6
CONTINUOUS
 10
25.201506359273051
 20
30.414214448394048
 30
0.0
 11
25.193233209933151
 21
30.414214448394048
 31
0.0
1001
ACDBBLOCKREPETAG
1070
     1
1071
       25
1005
34CF1
1001
ACDBBLOCKARRAYACTIONTAG
1070
     1
1001
ACAD
1000
ASC_BOUNDS
1002
{
1070
    19
1005
34FA1
1002
}
  0
LINE
  5
34CF2
  8
DETAIL
  6
CONTINUOUS
 10
25.295218859273032
 20
30.320501948394011
 30
0.0
 11
25.286945709933178
 21
30.320501948394011
 31
0.0
1001
ACDBBLOCKREPETAG
1070
     1
1071
       26
1005
34CF2
1001
ACDBBLOCKARRAYACTIONTAG
1070
     1
1001
ACAD
1000
ASC_BOUNDS
1002
{
1070
    19
1005
34FA1
1002
}
  0
LINE
  5
34CF3
  8
DETAIL
  6
CONTINUOUS
 10
25.142433209933159
 20
30.40251444839404
 30
0.0
 11
25.088206359273052
 21
30.40251444839404
 31
0.0
1001
ACDBBLOCKREPETAG
1070
     1
1071
       35
1005
34CF3
1001
ACDBBLOCKARRAYACTIONTAG
1070
     1
1001
ACAD
1000
ASC_BOUNDS
1002
{
1070
    19
1005
34FA1
1005
34FA1
1002
}
  0
LINE
  5
34CF4
  8
DETAIL
  6
CONTINUOUS
 10
25.212500584922928
 20
30.332447073404261
 30
0.0
 11
25.158273734262799
 21
30.332447073404261
 31
0.0
1001
ACDBBLOCKREPETAG
1070
     1
1071
       36
1005
34CF4
1001
ACDBBLOCKARRAYACTIONTAG
1070
     1
1001
ACAD
1000
ASC_BOUNDS
1002
{
1070
    19
1005
34FA1
1005
34FA1
1002
}
  0
LINE
  5
34CF5
  8
DETAIL
  6
CONTINUOUS
 10
25.13073320993314
 20
30.414214448394048
 30
0.0
 11
25.224445709933178
 21
30.320501948394011
 31
0.0
1001
ACDBBLOCKREPETAG
1070
     1
1071
       23
1005
34CF5
1001
ACDBBLOCKARRAYACTIONTAG
1070
     1
1001
ACAD
1000
ASC_BOUNDS
1002
{
1070
    19
1005
34FA1
1005
34FA1
1005
34FA1
1002
}
  0
LINE
  5
34CF6
  8
DETAIL
  6
CONTINUOUS
 10
25.139006359273051
 20
30.414214448394048
 30
0.0
 11
25.232718859273032
 21
30.320501948394011
 31
0.0
1001
ACDBBLOCKREPETAG
1070
     1
1071
       24
1005
34CF6
1001
ACDBBLOCKARRAYACTIONTAG
1070
     1
1001
ACAD
1000
ASC_BOUNDS
1002
{
1070
    19
1005
34FA1
1005
34FA1
1005
34FA1
1002
}
  0
LINE
  5
34CF7
  8
DETAIL
  6
CONTINUOUS
 10
25.139006359273051
 20
30.414214448394048
 30
0.0
 11
25.13073320993314
 21
30.414214448394048
 31
0.0
1001
ACDBBLOCKREPETAG
1070
     1
1071
       25
1005
34CF7
1001
ACDBBLOCKARRAYACTIONTAG
1070
     1
1001
ACAD
1000
ASC_BOUNDS
1002
{
1070
    19
1005
34FA1
1002
}
  0
LINE
  5
34CF8
  8
DETAIL
  6
CONTINUOUS
 10
25.232718859273032
 20
30.320501948394011
 30
0.0
 11
25.224445709933178
 21
30.320501948394011
 31
0.0
1001
ACDBBLOCKREPETAG
1070
     1
1071
       26
1005
34CF8
1001
ACDBBLOCKARRAYACTIONTAG
1070
     1
1001
ACAD
1000
ASC_BOUNDS
1002
{
1070
    19
1005
34FA1
1002
}
  0
LINE
  5
34CF9
  8
DETAIL
  6
CONTINUOUS
 10
25.079933209933159
 20
30.40251444839404
 30
0.0
 11
25.025706359273059
 21
30.40251444839404
 31
0.0
1001
ACDBBLOCKREPETAG
1070
     1
1071
       35
1005
34CF9
1001
ACDBBLOCKARRAYACTIONTAG
1070
     1
1001
ACAD
1000
ASC_BOUNDS
1002
{
1070
    19
1005
34FA1
1005
34FA1
1002
}
  0
LINE
  5
34CFA
  8
DETAIL
  6
CONTINUOUS
 10
25.150000584922928
 20
30.332447073404261
 30
0.0
 11
25.095773734262799
 21
30.332447073404261
 31
0.0
1001
ACDBBLOCKREPETAG
1070
     1
1071
       36
1005
34CFA
1001
ACDBBLOCKARRAYACTIONTAG
1070
     1
1001
ACAD
1000
ASC_BOUNDS
1002
{
1070
    19
1005
34FA1
1005
34FA1
1002
}
  0
LINE
  5
34CFB
  8
DETAIL
  6
CONTINUOUS
 10
25.06823320993314
 20
30.414214448394048
 30
0.0
 11
25.161945709933178
 21
30.320501948394011
 31
0.0
1001
ACDBBLOCKREPETAG
1070
     1
1071
       23
1005
34CFB
1001
ACDBBLOCKARRAYACTIONTAG
1070
     1
1001
ACAD
1000
ASC_BOUNDS
1002
{
1070
    19
1005
34FA1
1005
34FA1
1005
34FA1
1002
}
  0
LINE
  5
34CFC
  8
DETAIL
  6
CONTINUOUS
 10
25.076506359273051
 20
30.414214448394048
 30
0.0
 11
25.170218859273032
 21
30.320501948394011
 31
0.0
1001
ACDBBLOCKREPETAG
1070
     1
1071
       24
1005
34CFC
1001
ACDBBLOCKARRAYACTIONTAG
1070
     1
1001
ACAD
1000
ASC_BOUNDS
1002
{
1070
    19
1005
34FA1
1005
34FA1
1005
34FA1
1002
}
  0
LINE
  5
34CFD
  8
DETAIL
  6
CONTINUOUS
 10
25.076506359273051
 20
30.414214448394048
 30
0.0
 11
25.06823320993314
 21
30.414214448394048
 31
0.0
1001
ACDBBLOCKREPETAG
1070
     1
1071
       25
1005
34CFD
1001
ACDBBLOCKARRAYACTIONTAG
1070
     1
1001
ACAD
1000
ASC_BOUNDS
1002
{
1070
    19
1005
34FA1
1002
}
  0
LINE
  5
34CFE
  8
DETAIL
  6
CONTINUOUS
 10
25.170218859273032
 20
30.320501948394011
 30
0.0
 11
25.161945709933178
 21
30.320501948394011
 31
0.0
1001
ACDBBLOCKREPETAG
1070
     1
1071
       26
1005
34CFE
1001
ACDBBLOCKARRAYACTIONTAG
1070
     1
1001
ACAD
1000
ASC_BOUNDS
1002
{
1070
    19
1005
34FA1
1002
}
  0
LINE
  5
34CFF
  8
DETAIL
  6
CONTINUOUS
 10
25.01743320993317
 20
30.40251444839404
 30
0.0
 11
24.963206359273059
 21
30.40251444839404
 31
0.0
1001
ACDBBLOCKREPETAG
1070
     1
1071
       35
1005
34CFF
1001
ACDBBLOCKARRAYACTIONTAG
1070
     1
1001
ACAD
1000
ASC_BOUNDS
1002
{
1070
    19
1005
34FA1
1005
34FA1
1002
}
  0
LINE
  5
34D00
  8
DETAIL
  6
CONTINUOUS
 10
25.087500584922928
 20
30.332447073404261
 30
0.0
 11
25.033273734262799
 21
30.332447073404261
 31
0.0
1001
ACDBBLOCKREPETAG
1070
     1
1071
       36
1005
34D00
1001
ACDBBLOCKARRAYACTIONTAG
1070
     1
1001
ACAD
1000
ASC_BOUNDS
1002
{
1070
    19
1005
34FA1
1005
34FA1
1002
}
  0
LINE
  5
34D01
  8
DETAIL
  6
CONTINUOUS
 10
25.005733209933151
 20
30.414214448394048
 30
0.0
 11
25.099445709933171
 21
30.320501948394011
 31
0.0
1001
ACDBBLOCKREPETAG
1070
     1
1071
       23
1005
34D01
1001
ACDBBLOCKARRAYACTIONTAG
1070
     1
1001
ACAD
1000
ASC_BOUNDS
1002
{
1070
    19
1005
34FA1
1005
34FA1
1005
34FA1
1002
}
  0
LINE
  5
34D02
  8
DETAIL
  6
CONTINUOUS
 10
25.014006359273051
 20
30.414214448394048
 30
0.0
 11
25.107718859273032
 21
30.320501948394011
 31
0.0
1001
ACDBBLOCKREPETAG
1070
     1
1071
       24
1005
34D02
1001
ACDBBLOCKARRAYACTIONTAG
1070
     1
1001
ACAD
1000
ASC_BOUNDS
1002
{
1070
    19
1005
34FA1
1005
34FA1
1005
34FA1
1002
}
  0
LINE
  5
34D03
  8
DETAIL
  6
CONTINUOUS
 10
25.014006359273051
 20
30.414214448394048
 30
0.0
 11
25.005733209933151
 21
30.414214448394048
 31
0.0
1001
ACDBBLOCKREPETAG
1070
     1
1071
       25
1005
34D03
1001
ACDBBLOCKARRAYACTIONTAG
1070
     1
1001
ACAD
1000
ASC_BOUNDS
1002
{
1070
    19
1005
34FA1
1002
}
  0
LINE
  5
34D04
  8
DETAIL
  6
CONTINUOUS
 10
25.107718859273032
 20
30.320501948394011
 30
0.0
 11
25.099445709933171
 21
30.320501948394011
 31
0.0
1001
ACDBBLOCKREPETAG
1070
     1
1071
       26
1005
34D04
1001
ACDBBLOCKARRAYACTIONTAG
1070
     1
1001
ACAD
1000
ASC_BOUNDS
1002
{
1070
    19
1005
34FA1
1002
}
  0
LINE
  5
34D05
  8
DETAIL
  6
CONTINUOUS
 10
24.954933209933159
 20
30.40251444839404
 30
0.0
 11
24.90070635927307
 21
30.40251444839404
 31
0.0
1001
ACDBBLOCKREPETAG
1070
     1
1071
       35
1005
34D05
1001
ACDBBLOCKARRAYACTIONTAG
1070
     1
1001
ACAD
1000
ASC_BOUNDS
1002
{
1070
    19
1005
34FA1
1005
34FA1
1002
}
  0
LINE
  5
34D06
  8
DETAIL
  6
CONTINUOUS
 10
25.025000584922928
 20
30.332447073404261
 30
0.0
 11
24.970773734262799
 21
30.332447073404261
 31
0.0
1001
ACDBBLOCKREPETAG
1070
     1
1071
       36
1005
34D06
1001
ACDBBLOCKARRAYACTIONTAG
1070
     1
1001
ACAD
1000
ASC_BOUNDS
1002
{
1070
    19
1005
34FA1
1005
34FA1
1002
}
  0
LINE
  5
34D07
  8
DETAIL
  6
CONTINUOUS
 10
24.943233209933151
 20
30.414214448394048
 30
0.0
 11
25.036945709933178
 21
30.320501948394011
 31
0.0
1001
ACDBBLOCKREPETAG
1070
     1
1071
       23
1005
34D07
1001
ACDBBLOCKARRAYACTIONTAG
1070
     1
1001
ACAD
1000
ASC_BOUNDS
1002
{
1070
    19
1005
34FA1
1005
34FA1
1005
34FA1
1002
}
  0
LINE
  5
34D08
  8
DETAIL
  6
CONTINUOUS
 10
24.951506359273051
 20
30.414214448394048
 30
0.0
 11
25.045218859273032
 21
30.320501948394011
 31
0.0
1001
ACDBBLOCKREPETAG
1070
     1
1071
       24
1005
34D08
1001
ACDBBLOCKARRAYACTIONTAG
1070
     1
1001
ACAD
1000
ASC_BOUNDS
1002
{
1070
    19
1005
34FA1
1005
34FA1
1005
34FA1
1002
}
  0
LINE
  5
34D09
  8
DETAIL
  6
CONTINUOUS
 10
24.951506359273051
 20
30.414214448394048
 30
0.0
 11
24.943233209933151
 21
30.414214448394048
 31
0.0
1001
ACDBBLOCKREPETAG
1070
     1
1071
       25
1005
34D09
1001
ACDBBLOCKARRAYACTIONTAG
1070
     1
1001
ACAD
1000
ASC_BOUNDS
1002
{
1070
    19
1005
34FA1
1002
}
  0
LINE
  5
34D0A
  8
DETAIL
  6
CONTINUOUS
 10
25.045218859273032
 20
30.320501948394011
 30
0.0
 11
25.036945709933178
 21
30.320501948394011
 31
0.0
1001
ACDBBLOCKREPETAG
1070
     1
1071
       26
1005
34D0A
1001
ACDBBLOCKARRAYACTIONTAG
1070
     1
1001
ACAD
1000
ASC_BOUNDS
1002
{
1070
    19
1005
34FA1
1002
}
  0
LINE
  5
34D0B
  8
DETAIL
  6
CONTINUOUS
 10
24.892433209933159
 20
30.40251444839404
 30
0.0
 11
24.838206359273059
 21
30.40251444839404
 31
0.0
1001
ACDBBLOCKREPETAG
1070
     1
1071
       35
1005
34D0B
1001
ACDBBLOCKARRAYACTIONTAG
1070
     1
1001
ACAD
1000
ASC_BOUNDS
1002
{
1070
    19
1005
34FA1
1005
34FA1
1002
}
  0
LINE
  5
34D0C
  8
DETAIL
  6
CONTINUOUS
 10
24.962500584922928
 20
30.332447073404261
 30
0.0
 11
24.908273734262799
 21
30.332447073404261
 31
0.0
1001
ACDBBLOCKREPETAG
1070
     1
1071
       36
1005
34D0C
1001
ACDBBLOCKARRAYACTIONTAG
1070
     1
1001
ACAD
1000
ASC_BOUNDS
1002
{
1070
    19
1005
34FA1
1005
34FA1
1002
}
  0
LINE
  5
34D0D
  8
DETAIL
  6
CONTINUOUS
 10
24.880733209933151
 20
30.414214448394048
 30
0.0
 11
24.974445709933178
 21
30.320501948394011
 31
0.0
1001
ACDBBLOCKREPETAG
1070
     1
1071
       23
1005
34D0D
1001
ACDBBLOCKARRAYACTIONTAG
1070
     1
1001
ACAD
1000
ASC_BOUNDS
1002
{
1070
    19
1005
34FA1
1005
34FA1
1005
34FA1
1002
}
  0
LINE
  5
34D0E
  8
DETAIL
  6
CONTINUOUS
 10
24.889006359273051
 20
30.414214448394048
 30
0.0
 11
24.982718859273032
 21
30.320501948394011
 31
0.0
1001
ACDBBLOCKREPETAG
1070
     1
1071
       24
1005
34D0E
1001
ACDBBLOCKARRAYACTIONTAG
1070
     1
1001
ACAD
1000
ASC_BOUNDS
1002
{
1070
    19
1005
34FA1
1005
34FA1
1005
34FA1
1002
}
  0
LINE
  5
34D0F
  8
DETAIL
  6
CONTINUOUS
 10
24.889006359273051
 20
30.414214448394048
 30
0.0
 11
24.880733209933151
 21
30.414214448394048
 31
0.0
1001
ACDBBLOCKREPETAG
1070
     1
1071
       25
1005
34D0F
1001
ACDBBLOCKARRAYACTIONTAG
1070
     1
1001
ACAD
1000
ASC_BOUNDS
1002
{
1070
    19
1005
34FA1
1002
}
  0
LINE
  5
34D10
  8
DETAIL
  6
CONTINUOUS
 10
24.982718859273032
 20
30.320501948394011
 30
0.0
 11
24.974445709933178
 21
30.320501948394011
 31
0.0
1001
ACDBBLOCKREPETAG
1070
     1
1071
       26
1005
34D10
1001
ACDBBLOCKARRAYACTIONTAG
1070
     1
1001
ACAD
1000
ASC_BOUNDS
1002
{
1070
    19
1005
34FA1
1002
}
  0
LINE
  5
34D11
  8
DETAIL
  6
CONTINUOUS
 10
24.829933209933159
 20
30.40251444839404
 30
0.0
 11
24.775706359273052
 21
30.40251444839404
 31
0.0
1001
ACDBBLOCKREPETAG
1070
     1
1071
       35
1005
34D11
1001
ACDBBLOCKARRAYACTIONTAG
1070
     1
1001
ACAD
1000
ASC_BOUNDS
1002
{
1070
    19
1005
34FA1
1005
34FA1
1002
}
  0
LINE
  5
34D12
  8
DETAIL
  6
CONTINUOUS
 10
24.900000584922928
 20
30.332447073404261
 30
0.0
 11
24.845773734262799
 21
30.332447073404261
 31
0.0
1001
ACDBBLOCKREPETAG
1070
     1
1071
       36
1005
34D12
1001
ACDBBLOCKARRAYACTIONTAG
1070
     1
1001
ACAD
1000
ASC_BOUNDS
1002
{
1070
    19
1005
34FA1
1005
34FA1
1002
}
  0
LINE
  5
34D13
  8
DETAIL
  6
CONTINUOUS
 10
24.81823320993314
 20
30.414214448394048
 30
0.0
 11
24.911945709933178
 21
30.320501948394011
 31
0.0
1001
ACDBBLOCKREPETAG
1070
     1
1071
       23
1005
34D13
1001
ACDBBLOCKARRAYACTIONTAG
1070
     1
1001
ACAD
1000
ASC_BOUNDS
1002
{
1070
    19
1005
34FA1
1005
34FA1
1005
34FA1
1002
}
  0
LINE
  5
34D14
  8
DETAIL
  6
CONTINUOUS
 10
24.826506359273051
 20
30.414214448394048
 30
0.0
 11
24.920218859273032
 21
30.320501948394011
 31
0.0
1001
ACDBBLOCKREPETAG
1070
     1
1071
       24
1005
34D14
1001
ACDBBLOCKARRAYACTIONTAG
1070
     1
1001
ACAD
1000
ASC_BOUNDS
1002
{
1070
    19
1005
34FA1
1005
34FA1
1005
34FA1
1002
}
  0
LINE
  5
34D15
  8
DETAIL
  6
CONTINUOUS
 10
24.826506359273051
 20
30.414214448394048
 30
0.0
 11
24.81823320993314
 21
30.414214448394048
 31
0.0
1001
ACDBBLOCKREPETAG
1070
     1
1071
       25
1005
34D15
1001
ACDBBLOCKARRAYACTIONTAG
1070
     1
1001
ACAD
1000
ASC_BOUNDS
1002
{
1070
    19
1005
34FA1
1002
}
  0
LINE
  5
34D16
  8
DETAIL
  6
CONTINUOUS
 10
24.920218859273032
 20
30.320501948394011
 30
0.0
 11
24.911945709933178
 21
30.320501948394011
 31
0.0
1001
ACDBBLOCKREPETAG
1070
     1
1071
       26
1005
34D16
1001
ACDBBLOCKARRAYACTIONTAG
1070
     1
1001
ACAD
1000
ASC_BOUNDS
1002
{
1070
    19
1005
34FA1
1002
}
  0
LINE
  5
34D17
  8
DETAIL
  6
CONTINUOUS
 10
24.767433209933159
 20
30.40251444839404
 30
0.0
 11
24.713206359273059
 21
30.40251444839404
 31
0.0
1001
ACDBBLOCKREPETAG
1070
     1
1071
       35
1005
34D17
1001
ACDBBLOCKARRAYACTIONTAG
1070
     1
  0
LINE
  5
34D18
  8
DETAIL
  6
CONTINUOUS
 10
24.837500584922928
 20
30.332447073404261
 30
0.0
 11
24.783273734262799
 21
30.332447073404261
 31
0.0
1001
ACDBBLOCKREPETAG
1070
     1
1071
       36
1005
34D18
1001
ACDBBLOCKARRAYACTIONTAG
1070
     1
1001
ACAD
1000
ASC_BOUNDS
1002
{
1070
    19
1005
34FA1
1005
34FA1
1002
}
  0
LINE
  5
34D19
  8
DETAIL
  6
CONTINUOUS
 10
24.75573320993314
 20
30.414214448394048
 30
0.0
 11
24.849445709933178
 21
30.320501948394011
 31
0.0
1001
ACDBBLOCKREPETAG
1070
     1
1071
       23
1005
34D19
1001
ACDBBLOCKARRAYACTIONTAG
1070
     1
1001
ACAD
1000
ASC_BOUNDS
1002
{
1070
    19
1005
34FA1
1005
34FA1
1002
}
  0
LINE
  5
34D1A
  8
DETAIL
  6
CONTINUOUS
 10
24.764006359273051
 20
30.414214448394048
 30
0.0
 11
24.857718859273032
 21
30.320501948394011
 31
0.0
1001
ACDBBLOCKREPETAG
1070
     1
1071
       24
1005
34D1A
1001
ACDBBLOCKARRAYACTIONTAG
1070
     1
1001
ACAD
1000
ASC_BOUNDS
1002
{
1070
    19
1005
34FA1
1005
34FA1
1002
}
  0
LINE
  5
34D1B
  8
DETAIL
  6
CONTINUOUS
 10
24.764006359273051
 20
30.414214448394048
 30
0.0
 11
24.75573320993314
 21
30.414214448394048
 31
0.0
1001
ACDBBLOCKREPETAG
1070
     1
1071
       25
1005
34D1B
1001
ACDBBLOCKARRAYACTIONTAG
1070
     1
  0
LINE
  5
34D1C
  8
DETAIL
  6
CONTINUOUS
 10
24.857718859273032
 20
30.320501948394011
 30
0.0
 11
24.849445709933178
 21
30.320501948394011
 31
0.0
1001
ACDBBLOCKREPETAG
1070
     1
1071
       26
1005
34D1C
1001
ACDBBLOCKARRAYACTIONTAG
1070
     1
1001
ACAD
1000
ASC_BOUNDS
1002
{
1070
    19
1005
34FA1
1002
}
  0
LINE
  5
34D1D
  8
DETAIL
  6
CONTINUOUS
 10
24.70493320993317
 20
30.40251444839404
 30
0.0
 11
24.650706359273059
 21
30.40251444839404
 31
0.0
1001
ACDBBLOCKREPETAG
1070
     1
1071
       35
1005
34D1D
1001
ACDBBLOCKARRAYACTIONTAG
1070
     1
  0
LINE
  5
34D1E
  8
DETAIL
  6
CONTINUOUS
 10
24.775000584922928
 20
30.332447073404261
 30
0.0
 11
24.720773734262799
 21
30.332447073404261
 31
0.0
1001
ACDBBLOCKREPETAG
1070
     1
1071
       36
1005
34D1E
1001
ACDBBLOCKARRAYACTIONTAG
1070
     1
  0
LINE
  5
34D1F
  8
DETAIL
  6
CONTINUOUS
 10
24.693233209933151
 20
30.414214448394048
 30
0.0
 11
24.786945709933171
 21
30.320501948394011
 31
0.0
1001
ACDBBLOCKREPETAG
1070
     1
1071
       23
1005
34D1F
1001
ACDBBLOCKARRAYACTIONTAG
1070
     1
1001
ACAD
1000
ASC_BOUNDS
1002
{
1070
    19
1005
34FA1
1002
}
  0
LINE
  5
34D20
  8
DETAIL
  6
CONTINUOUS
 10
24.701506359273051
 20
30.414214448394048
 30
0.0
 11
24.795218859273032
 21
30.320501948394011
 31
0.0
1001
ACDBBLOCKREPETAG
1070
     1
1071
       24
1005
34D20
1001
ACDBBLOCKARRAYACTIONTAG
1070
     1
1001
ACAD
1000
ASC_BOUNDS
1002
{
1070
    19
1005
34FA1
1005
34FA1
1002
}
  0
LINE
  5
34D21
  8
DETAIL
  6
CONTINUOUS
 10
24.701506359273051
 20
30.414214448394048
 30
0.0
 11
24.693233209933151
 21
30.414214448394048
 31
0.0
1001
ACDBBLOCKREPETAG
1070
     1
1071
       25
1005
34D21
1001
ACDBBLOCKARRAYACTIONTAG
1070
     1
  0
LINE
  5
34D22
  8
DETAIL
  6
CONTINUOUS
 10
24.795218859273032
 20
30.320501948394011
 30
0.0
 11
24.786945709933171
 21
30.320501948394011
 31
0.0
1001
ACDBBLOCKREPETAG
1070
     1
1071
       26
1005
34D22
1001
ACDBBLOCKARRAYACTIONTAG
1070
     1
1001
ACAD
1000
ASC_BOUNDS
1002
{
1070
    19
1005
34FA1
1002
}
  0
LINE
  5
34D23
  8
DETAIL
  6
CONTINUOUS
 10
24.642433209933159
 20
30.40251444839404
 30
0.0
 11
24.58820635927307
 21
30.40251444839404
 31
0.0
1001
ACDBBLOCKREPETAG
1070
     1
1071
       35
1005
34D23
1001
ACDBBLOCKARRAYACTIONTAG
1070
     1
  0
LINE
  5
34D24
  8
DETAIL
  6
CONTINUOUS
 10
24.712500584922928
 20
30.332447073404261
 30
0.0
 11
24.658273734262799
 21
30.332447073404261
 31
0.0
1001
ACDBBLOCKREPETAG
1070
     1
1071
       36
1005
34D24
1001
ACDBBLOCKARRAYACTIONTAG
1070
     1
  0
LINE
  5
34D25
  8
DETAIL
  6
CONTINUOUS
 10
24.630733209933151
 20
30.414214448394048
 30
0.0
 11
24.724445709933178
 21
30.320501948394011
 31
0.0
1001
ACDBBLOCKREPETAG
1070
     1
1071
       23
1005
34D25
1001
ACDBBLOCKARRAYACTIONTAG
1070
     1
  0
LINE
  5
34D26
  8
DETAIL
  6
CONTINUOUS
 10
24.639006359273051
 20
30.414214448394048
 30
0.0
 11
24.732718859273032
 21
30.320501948394011
 31
0.0
1001
ACDBBLOCKREPETAG
1070
     1
1071
       24
1005
34D26
1001
ACDBBLOCKARRAYACTIONTAG
1070
     1
  0
LINE
  5
34D27
  8
DETAIL
  6
CONTINUOUS
 10
24.639006359273051
 20
30.414214448394048
 30
0.0
 11
24.630733209933151
 21
30.414214448394048
 31
0.0
1001
ACDBBLOCKREPETAG
1070
     1
1071
       25
1005
34D27
1001
ACDBBLOCKARRAYACTIONTAG
1070
     1
  0
LINE
  5
34D28
  8
DETAIL
  6
CONTINUOUS
 10
24.732718859273032
 20
30.320501948394011
 30
0.0
 11
24.724445709933178
 21
30.320501948394011
 31
0.0
1001
ACDBBLOCKREPETAG
1070
     1
1071
       26
1005
34D28
1001
ACDBBLOCKARRAYACTIONTAG
1070
     1
  0
LINE
  5
34D29
  8
DETAIL
  6
CONTINUOUS
 10
24.579933209933159
 20
30.40251444839404
 30
0.0
 11
24.525706359273059
 21
30.40251444839404
 31
0.0
1001
ACDBBLOCKREPETAG
1070
     1
1071
       35
1005
34D29
1001
ACDBBLOCKARRAYACTIONTAG
1070
     1
  0
LINE
  5
34D2A
  8
DETAIL
  6
CONTINUOUS
 10
24.650000584922928
 20
30.332447073404261
 30
0.0
 11
24.595773734262799
 21
30.332447073404261
 31
0.0
1001
ACDBBLOCKREPETAG
1070
     1
1071
       36
1005
34D2A
1001
ACDBBLOCKARRAYACTIONTAG
1070
     1
  0
LINE
  5
34D2B
  8
DETAIL
  6
CONTINUOUS
 10
24.568233209933151
 20
30.414214448394048
 30
0.0
 11
24.661945709933178
 21
30.320501948394011
 31
0.0
1001
ACDBBLOCKREPETAG
1070
     1
1071
       23
1005
34D2B
1001
ACDBBLOCKARRAYACTIONTAG
1070
     1
  0
LINE
  5
34D2C
  8
DETAIL
  6
CONTINUOUS
 10
24.576506359273051
 20
30.414214448394048
 30
0.0
 11
24.670218859273032
 21
30.320501948394011
 31
0.0
1001
ACDBBLOCKREPETAG
1070
     1
1071
       24
1005
34D2C
1001
ACDBBLOCKARRAYACTIONTAG
1070
     1
  0
LINE
  5
34D2D
  8
DETAIL
  6
CONTINUOUS
 10
24.576506359273051
 20
30.414214448394048
 30
0.0
 11
24.568233209933151
 21
30.414214448394048
 31
0.0
1001
ACDBBLOCKREPETAG
1070
     1
1071
       25
1005
34D2D
1001
ACDBBLOCKARRAYACTIONTAG
1070
     1
  0
LINE
  5
34D2E
  8
DETAIL
  6
CONTINUOUS
 10
24.670218859273032
 20
30.320501948394011
 30
0.0
 11
24.661945709933178
 21
30.320501948394011
 31
0.0
1001
ACDBBLOCKREPETAG
1070
     1
1071
       26
1005
34D2E
1001
ACDBBLOCKARRAYACTIONTAG
1070
     1
  0
LINE
  5
34D2F
  8
DETAIL
  6
CONTINUOUS
 10
24.517433209933159
 20
30.40251444839404
 30
0.0
 11
24.463206359273052
 21
30.40251444839404
 31
0.0
1001
ACDBBLOCKREPETAG
1070
     1
1071
       35
1005
34D2F
1001
ACDBBLOCKARRAYACTIONTAG
1070
     1
  0
LINE
  5
34D30
  8
DETAIL
  6
CONTINUOUS
 10
24.587500584922928
 20
30.332447073404261
 30
0.0
 11
24.533273734262799
 21
30.332447073404261
 31
0.0
1001
ACDBBLOCKREPETAG
1070
     1
1071
       36
1005
34D30
1001
ACDBBLOCKARRAYACTIONTAG
1070
     1
  0
LINE
  5
34D31
  8
DETAIL
  6
CONTINUOUS
 10
24.50573320993314
 20
30.414214448394048
 30
0.0
 11
24.599445709933178
 21
30.320501948394011
 31
0.0
1001
ACDBBLOCKREPETAG
1070
     1
1071
       23
1005
34D31
1001
ACDBBLOCKARRAYACTIONTAG
1070
     1
  0
LINE
  5
34D32
  8
DETAIL
  6
CONTINUOUS
 10
24.514006359273051
 20
30.414214448394048
 30
0.0
 11
24.607718859273032
 21
30.320501948394011
 31
0.0
1001
ACDBBLOCKREPETAG
1070
     1
1071
       24
1005
34D32
1001
ACDBBLOCKARRAYACTIONTAG
1070
     1
  0
LINE
  5
34D33
  8
DETAIL
  6
CONTINUOUS
 10
24.514006359273051
 20
30.414214448394048
 30
0.0
 11
24.50573320993314
 21
30.414214448394048
 31
0.0
1001
ACDBBLOCKREPETAG
1070
     1
1071
       25
1005
34D33
1001
ACDBBLOCKARRAYACTIONTAG
1070
     1
  0
LINE
  5
34D34
  8
DETAIL
  6
CONTINUOUS
 10
24.607718859273032
 20
30.320501948394011
 30
0.0
 11
24.599445709933178
 21
30.320501948394011
 31
0.0
1001
ACDBBLOCKREPETAG
1070
     1
1071
       26
1005
34D34
1001
ACDBBLOCKARRAYACTIONTAG
1070
     1
  0
DIMENSION
  5
34D9B
  8
DIM
  2
*D3
 10
25.53004854533927
 20
28.823398330650171
 30
0.0
 11
25.15504854533927
 21
28.611365778052999
 31
0.0
 70
   128
  1
1/2" OR 3/4"\POPTIONAL
 13
24.78004854533927
 23
29.95360819839404
 33
0.0
 14
25.53004854533927
 24
29.252358198394081
 34
0.0
1001
ACAD
1000
DSTYLE
1002
{
1070
   287
1070
     5
1070
   279
1070
     2
1002
}
  0
DIMENSION
  5
34DE2
  8
DIM
  2
*D4
 10
26.46754854533927
 20
28.824449504571639
 30
0.0
 11
25.99879854533927
 21
28.824449504571639
 31
0.0
 13
25.53004854533927
 23
29.252358198394081
 33
0.0
 14
26.46754854533927
 24
29.252358198394081
 34
0.0
  0
DIMENSION
  5
34DF0
  8
DIM
  2
*D6
 10
26.96909848959837
 20
29.252358198394081
 30
0.0
 11
26.96909848959837
 21
29.962358198394021
 31
0.0
 13
25.685048545339232
 23
30.67235819839393
 33
0.0
 14
26.46754854533927
 24
29.252358198394081
 34
0.0
 50
90.0
1001
ACAD
1000
DSTYLE
1002
{
1070
   271
1070
     4
1002
}
  0
INSERT
  5
34E08
  8
0
  2
*U36
 10
0.0
 20
0.0
 30
0.0
1001
ACAD
1000
DSTYLE
1002
{
1070
   147
1040
0.09
1070
    77
1070
     0
1002
}
  0
INSERT
  5
34E09
  8
0
  2
*U37
 10
0.0
 20
0.0
 30
0.0
  0
INSERT
  5
34FA1
  8
HATCH
  6
CONTINUOUS
 62
     5
  2
*X38
 10
0.0
 20
0.0
 30
0.0
1001
ACAD
1000
HATCH
1002
{
1070
    19
1000
DOTS
1040
0.5
1040
0.7853981633974483
1000
ASC_BOUNDS
1070
    13
1070
     1
1070
     4
1005
34D19
1005
34D18
1005
34D20
1005
34CC7
1070
     1
1070
     5
1005
34D13
1005
34D12
1005
34D1A
1005
34CC7
1005
34D11
1070
     1
1070
     4
1005
34D0D
1005
34D0C
1005
34D14
1005
34D0B
1070
     1
1070
     4
1005
34D07
1005
34D06
1005
34D0E
1005
34D05
1070
     1
1070
     4
1005
34D01
1005
34D00
1005
34D08
1005
34CFF
1070
     1
1070
     4
1005
34CFB
1005
34CFA
1005
34D02
1005
34CF9
1070
     1
1070
     4
1005
34CF5
1005
34CF4
1005
34CFC
1005
34CF3
1070
     1
1070
     4
1005
34CEF
1005
34CEE
1005
34CF6
1005
34CED
1070
     1
1070
     4
1005
34CE0
1005
34CDD
1005
34CF0
1005
34CD6
1070
     1
1070
     4
1005
34CD2
1005
34CDC
1005
34CE1
1005
34CD5
1070
     1
1070
     5
1005
34CC7
1005
34CDB
1005
34CD3
1005
34CD9
1005
34CEC
1070
     1
1070
    45
1005
34CC7
1005
34D1F
1005
34D22
1005
34D20
1005
34D18
1005
34D19
1005
34D1C
1005
34D1A
1005
34D12
1005
34D13
1005
34D16
1005
34D14
1005
34D0C
1005
34D0D
1005
34D10
1005
34D0E
1005
34D06
1005
34D07
1005
34D0A
1005
34D08
1005
34D00
1005
34D01
1005
34D04
1005
34D02
1005
34CFA
1005
34CFB
1005
34CFE
1005
34CFC
1005
34CF4
1005
34CF5
1005
34CF8
1005
34CF6
1005
34CEE
1005
34CEF
1005
34CF2
1005
34CF0
1005
34CDD
1005
34CE0
1005
34CE3
1005
34CE1
1005
34CDC
1005
34CD2
1005
34CD8
1005
34CD3
1005
34CDB
1070
     1
1070
    39
1005
34CEC
1005
34CD9
1005
34CD3
1005
34CD4
1005
34CD2
1005
34CD5
1005
34CE1
1005
34CE2
1005
34CE0
1005
34CD6
1005
34CF0
1005
34CF1
1005
34CEF
1005
34CED
1005
34CF6
1005
34CF7
1005
34CF5
1005
34CF3
1005
34CFC
1005
34CFD
1005
34CFB
1005
34CF9
1005
34D02
1005
34D03
1005
34D01
1005
34CFF
1005
34D08
1005
34D09
1005
34D07
1005
34D05
1005
34D0E
1005
34D0F
1005
34D0D
1005
34D0B
1005
34D14
1005
34D15
1005
34D13
1005
34D11
1005
34CC7
1000
ASC_SEEDPOINT
1011
25.473780679038601
1021
0.0
1031
0.0
1021
30.444936389315789
1031
0.0
1000
R14_HATCH_DATA
1000
34FA1
1011
1.0
1021
0.0
1031
0.0
1021
0.0
1031
0.0
1011
0.0
1021
0.0
1031
0.0
1021
1.0
1031
0.0
1011
0.0
1021
0.0
1031
0.0
1021
0.0
1031
1.0
1040
0.0
1010
0.0
1020
0.0
1030
1.0
1000
DOTS
1070
     0
1070
     1
1071
       13
1071
        7
1070
     1
1070
     1
1071
       41
1040
25.49879854533927
1040
30.641108198394051
1040
0.0
1040
24.78004854533927
1040
30.64110819839404
1040
0.0
1040
24.78004854533927
1040
30.40251444839404
1040
0.0
1040
24.82993320993317
1040
30.40251444839404
1040
0.0
1040
24.81823320993314
1040
30.414214448394048
1040
0.0
1040
24.826506359273051
1040
30.414214448394059
1040
0.0
1040
24.838206359273059
1040
30.40251444839404
1040
0.0
1040
24.892433209933159
1040
30.40251444839404
1040
0.0
1040
24.88073320993313
1040
30.414214448394059
1040
0.0
1040
24.889006359273061
1040
30.414214448394048
1040
0.0
1040
24.90070635927307
1040
30.40251444839404
1040
0.0
1040
24.954933209933149
1040
30.40251444839404
1040
0.0
1040
24.943233209933151
1040
30.414214448394059
1040
0.0
1040
24.951506359273061
1040
30.414214448394048
1040
0.0
1040
24.96320635927307
1040
30.40251444839404
1040
0.0
1040
25.017433209933149
1040
30.40251444839404
1040
0.0
1040
25.00573320993313
1040
30.414214448394059
1040
0.0
1040
25.014006359273051
1040
30.414214448394048
1040
0.0
1040
25.025706359273059
1040
30.40251444839404
1040
0.0
1040
25.079933209933159
1040
30.40251444839404
1040
0.0
1040
25.06823320993314
1040
30.414214448394059
1040
0.0
1040
25.076506359273051
1040
30.414214448394048
1040
0.0
1040
25.088206359273052
1040
30.40251444839404
1040
0.0
1040
25.142433209933159
1040
30.40251444839404
1040
0.0
1040
25.13073320993314
1040
30.414214448394059
1040
0.0
1040
25.139006359273051
1040
30.414214448394048
1040
0.0
1040
25.150706359273059
1040
30.40251444839404
1040
0.0
1040
25.204933209933159
1040
30.40251444839404
1040
0.0
1040
25.193233209933151
1040
30.414214448394059
1040
0.0
1040
25.201506359273061
1040
30.414214448394048
1040
0.0
1040
25.213206359273059
1040
30.40251444839404
1040
0.0
1040
25.267433209933159
1040
30.40251444839404
1040
0.0
1040
25.25573320993313
1040
30.414214448394048
1040
0.0
1040
25.26400635927304
1040
30.414214448394048
1040
0.0
1040
25.275706359273059
1040
30.40251444839404
1040
0.0
1040
25.329933209933149
1040
30.40251444839404
1040
0.0
1040
25.318233209933151
1040
30.414214448394059
1040
0.0
1040
25.326506359273051
1040
30.414214448394048
1040
0.0
1040
25.338206359273059
1040
30.40251444839404
1040
0.0
1040
25.41964038974362
1040
30.40251444839404
1040
0.0939885181374495
1040
25.49879854533927
1040
30.421468284708691
1040
0.0
1071
       39
1005
34CC7
1005
34D11
1005
34D13
1005
34D15
1005
34D14
1005
34D0B
1005
34D0D
1005
34D0F
1005
34D0E
1005
34D05
1005
34D07
1005
34D09
1005
34D08
1005
34CFF
1005
34D01
1005
34D03
1005
34D02
1005
34CF9
1005
34CFB
1005
34CFD
1005
34CFC
1005
34CF3
1005
34CF5
1005
34CF7
1005
34CF6
1005
34CED
1005
34CEF
1005
34CF1
1005
34CF0
1005
34CD6
1005
34CE0
1005
34CE2
1005
34CE1
1005
34CD5
1005
34CD2
1005
34CD4
1005
34CD3
1005
34CD9
1005
34CEC
1071
        7
1070
     1
1070
     1
1071
       47
1040
25.49879854533927
1040
30.313248112079378
1040
0.1071350777650855
1040
25.408273734262789
1040
30.332447073404261
1040
0.0
1040
25.420218859273032
1040
30.320501948394021
1040
0.0
1040
25.411945709933171
1040
30.320501948394011
1040
0.0
1040
25.400000584922939
1040
30.332447073404261
1040
0.0
1040
25.345773734262789
1040
30.332447073404261
1040
0.0
1040
25.357718859273032
1040
30.320501948394021
1040
0.0
1040
25.349445709933171
1040
30.320501948394011
1040
0.0
1040
25.337500584922928
1040
30.332447073404261
1040
0.0
1040
25.283273734262789
1040
30.33244707340425
1040
0.0
1040
25.295218859273032
1040
30.320501948394021
1040
0.0
1040
25.286945709933171
1040
30.320501948394011
1040
0.0
1040
25.275000584922928
1040
30.332447073404261
1040
0.0
1040
25.220773734262799
1040
30.332447073404261
1040
0.0
1040
25.232718859273032
1040
30.320501948394021
1040
0.0
1040
25.224445709933171
1040
30.320501948394011
1040
0.0
1040
25.212500584922928
1040
30.332447073404261
1040
0.0
1040
25.158273734262799
1040
30.332447073404261
1040
0.0
1040
25.170218859273032
1040
30.320501948394021
1040
0.0
1040
25.161945709933171
1040
30.320501948394011
1040
0.0
1040
25.150000584922921
1040
30.332447073404261
1040
0.0
1040
25.095773734262782
1040
30.332447073404261
1040
0.0
1040
25.107718859273032
1040
30.320501948394021
1040
0.0
1040
25.099445709933171
1040
30.320501948394011
1040
0.0
1040
25.087500584922928
1040
30.332447073404261
1040
0.0
1040
25.033273734262789
1040
30.33244707340425
1040
0.0
1040
25.045218859273032
1040
30.320501948394021
1040
0.0
1040
25.036945709933178
1040
30.320501948394011
1040
0.0
1040
25.025000584922928
1040
30.332447073404261
1040
0.0
1040
24.970773734262789
1040
30.332447073404261
1040
0.0
1040
24.982718859273032
1040
30.320501948394021
1040
0.0
1040
24.974445709933171
1040
30.320501948394011
1040
0.0
1040
24.962500584922928
1040
30.332447073404261
1040
0.0
1040
24.908273734262799
1040
30.332447073404261
1040
0.0
1040
24.920218859273032
1040
30.320501948394021
1040
0.0
1040
24.911945709933171
1040
30.320501948394011
1040
0.0
1040
24.900000584922928
1040
30.332447073404261
1040
0.0
1040
24.845773734262789
1040
30.332447073404261
1040
0.0
1040
24.857718859273032
1040
30.320501948394021
1040
0.0
1040
24.849445709933171
1040
30.320501948394011
1040
0.0
1040
24.837500584922921
1040
30.332447073404261
1040
0.0
1040
24.783273734262789
1040
30.332447073404261
1040
0.0
1040
24.795218859273032
1040
30.320501948394021
1040
0.0
1040
24.786945709933171
1040
30.320501948394011
1040
0.0
1040
24.78004854533927
1040
30.327399112987919
1040
0.0
1040
24.78004854533927
1040
29.953608198394051
1040
0.0
1040
25.49879854533927
1040
29.95360819839404
1040
0.0
1071
       45
1005
34CDB
1005
34CD3
1005
34CD8
1005
34CD2
1005
34CDC
1005
34CE1
1005
34CE3
1005
34CE0
1005
34CDD
1005
34CF0
1005
34CF2
1005
34CEF
1005
34CEE
1005
34CF6
1005
34CF8
1005
34CF5
1005
34CF4
1005
34CFC
1005
34CFE
1005
34CFB
1005
34CFA
1005
34D02
1005
34D04
1005
34D01
1005
34D00
1005
34D08
1005
34D0A
1005
34D07
1005
34D06
1005
34D0E
1005
34D10
1005
34D0D
1005
34D0C
1005
34D14
1005
34D16
1005
34D13
1005
34D12
1005
34D1A
1005
34D1C
1005
34D19
1005
34D18
1005
34D20
1005
34D22
1005
34D1F
1005
34CC7
1071
        7
1070
     1
1070
     1
1071
        5
1040
25.49879854533927
1040
30.421468284708691
1040
-0.0939885181374495
1040
25.41964038974362
1040
30.40251444839404
1040
0.0
1040
25.338206359273059
1040
30.40251444839404
1040
0.0
1040
25.408273734262789
1040
30.332447073404261
1040
-0.1071350777650855
1040
25.49879854533927
1040
30.313248112079378
1040
0.0
1071
        5
1005
34CEC
1005
34CD9
1005
34CD3
1005
34CDB
1005
34CC7
1071
        7
1070
     0
1070
     1
1071
        4
1040
25.329933209933149
1040
30.40251444839404
1040
25.275706359273059
1040
30.40251444839404
1040
25.345773734262789
1040
30.332447073404261
1040
25.400000584922928
1040
30.332447073404261
1071
        4
1005
34CD5
1005
34CE1
1005
34CDC
1005
34CD2
1071
        7
1070
     0
1070
     1
1071
        4
1040
25.267433209933149
1040
30.40251444839404
1040
25.213206359273059
1040
30.40251444839404
1040
25.283273734262789
1040
30.332447073404261
1040
25.337500584922928
1040
30.332447073404261
1071
        4
1005
34CD6
1005
34CF0
1005
34CDD
1005
34CE0
1071
        7
1070
     0
1070
     1
1071
        4
1040
25.204933209933159
1040
30.40251444839404
1040
25.150706359273059
1040
30.40251444839404
1040
25.220773734262799
1040
30.332447073404261
1040
25.275000584922928
1040
30.332447073404261
1071
        4
1005
34CED
1005
34CF6
1005
34CEE
1005
34CEF
1071
        7
1070
     0
1070
     1
1071
        4
1040
25.142433209933149
1040
30.40251444839404
1040
25.088206359273052
1040
30.40251444839404
1040
25.158273734262789
1040
30.332447073404261
1040
25.212500584922928
1040
30.332447073404261
1071
        4
1005
34CF3
1005
34CFC
1005
34CF4
1005
34CF5
1071
        7
1070
     0
1070
     1
1071
        4
1040
25.079933209933149
1040
30.40251444839404
1040
25.025706359273059
1040
30.40251444839404
1040
25.095773734262799
1040
30.332447073404261
1040
25.150000584922921
1040
30.332447073404261
1071
        4
1005
34CF9
1005
34D02
1005
34CFA
1005
34CFB
1071
        7
1070
     0
1070
     1
1071
        4
1040
25.017433209933149
1040
30.40251444839404
1040
24.963206359273059
1040
30.40251444839404
1040
25.033273734262789
1040
30.332447073404261
1040
25.087500584922928
1040
30.332447073404261
1071
        4
1005
34CFF
1005
34D08
1005
34D00
1005
34D01
1071
        7
1070
     0
1070
     1
1071
        4
1040
24.954933209933159
1040
30.40251444839404
1040
24.900706359273059
1040
30.40251444839404
1040
24.970773734262789
1040
30.332447073404261
1040
25.025000584922928
1040
30.332447073404261
1071
        4
1005
34D05
1005
34D0E
1005
34D06
1005
34D07
1071
        7
1070
     0
1070
     1
1071
        4
1040
24.892433209933149
1040
30.40251444839404
1040
24.838206359273052
1040
30.40251444839404
1040
24.908273734262799
1040
30.332447073404261
1040
24.962500584922928
1040
30.332447073404261
1071
        4
1005
34D0B
1005
34D14
1005
34D0C
1005
34D0D
1071
        7
1070
     0
1070
     1
1071
        5
1040
24.829933209933149
1040
30.40251444839404
1040
24.78004854533927
1040
30.40251444839404
1040
24.78004854533927
1040
30.398172262327819
1040
24.845773734262799
1040
30.332447073404261
1040
24.900000584922928
1040
30.332447073404261
1071
        5
1005
34D11
1005
34CC7
1005
34D1A
1005
34D12
1005
34D13
1071
       23
1070
     0
1070
     1
1071
        4
1040
24.78004854533927
1040
30.389899112987919
1040
24.78004854533927
1040
30.33567226232778
1040
24.783273734262782
1040
30.332447073404261
1040
24.837500584922921
1040
30.332447073404261
1071
        4
1005
34CC7
1005
34D20
1005
34D18
1005
34D19
1070
     0
1070
     1
1040
0.7853981633974483
1040
0.5
1070
     0
1070
     1
1040
0.7853981633974483
1040
24.78004854533927
1040
29.95360819839404
1040
-0.0110485434560398
1040
0.0331456303681194
1070
     2
1040
0.0
1040
-0.03125
1040
0.0040490980815085
1071
       13
1040
25.473780679038601
1040
30.444936389315789
1040
0.0
1040
25.402964557939761
1040
30.156067584354211
1040
0.0
1040
25.460773634729289
1040
30.365497467451981
1040
0.0
1040
25.339374569988411
1040
30.364053124991891
1040
0.0
1040
25.28445594877979
1040
30.35683140603307
1040
0.0
1040
25.226646871990251
1040
30.35683140603307
1040
0.0
1040
25.150049839729618
1040
30.35683140603307
1040
0.0
1040
25.09802167410189
1040
30.35683140603307
1040
0.0
1040
25.035876908136249
1040
30.35683140603307
1040
0.0
1040
24.972286931794422
1040
30.35683140603307
1040
0.0
1040
24.90869694384309
1040
30.35683140603307
1040
0.0
1040
24.846552177877449
1040
30.35683140603307
1040
0.0
1040
24.804640600978122
1040
30.340943618996949
1040
0.0
1002
}
  0
INSERT
  5
34FC2
  8
0
  2
*U39
 10
0.0
 20
0.0
 30
0.0
1001
ACAD
1000
DSTYLE
1002
{
1070
   147
1040
0.09
1070
    77
1070
     0
1002
}
  0
INSERT
  5
34FC3
  8
0
  2
*U40
 10
0.0
 20
0.0
 30
0.0
  0
INSERT
  5
34FE8
  8
HATCH
  6
CONTINUOUS
  2
*U41
 10
0.0
 20
0.0
 30
0.0
1001
ACAD
1002
{
1000
R14_HATCH_DATA
1000
34FE8
1011
1.0
1021
0.0
1031
0.0
1021
0.0
1031
0.0
1011
0.0
1021
0.0
1031
0.0
1021
1.0
1031
0.0
1011
0.0
1021
0.0
1031
0.0
1021
0.0
1031
1.0
1040
0.0
1010
0.0
1020
0.0
1030
1.0
1000
SOLID
1070
     1
1070
     1
1071
        1
1071
        1
1071
       18
1070
     2
1040
25.660048545339379
1040
30.012358198393962
1040
0.0249999999998636
1040
3.1415926535897918
1040
6.2831853071795853
1070
     1
1070
     1
1040
25.685048545339232
1040
30.012358198393962
1040
25.68504854533947
1040
30.112358198393981
1070
     1
1040
25.68504854533947
1040
30.112358198393981
1040
25.580048545339451
1040
30.112358198393981
1070
     1
1040
25.580048545339451
1040
30.112358198393981
1040
25.580048545339221
1040
30.622358198394089
1070
     1
1040
25.580048545339221
1040
30.622358198394089
1040
25.685048545339011
1040
30.622358198394089
1070
     1
1040
25.685048545339011
1040
30.622358198394089
1040
25.685048545339232
1040
30.67235819839393
1070
     1
1040
25.685048545339232
1040
30.67235819839393
1040
25.53004854533927
1040
30.67235819839404
1070
     1
1040
25.53004854533927
1040
30.67235819839404
1040
25.53004854533927
1040
29.252358198394081
1070
     1
1040
25.53004854533927
1040
29.252358198394081
1040
26.46754854533927
1040
29.252358198394081
1070
     1
1040
26.46754854533927
1040
29.252358198394081
1040
26.46754854533927
1040
29.302358198394039
1070
     1
1040
26.46754854533927
1040
29.302358198394039
1040
25.685048545339232
1040
29.302358198394039
1070
     1
1040
25.685048545339232
1040
29.302358198394039
1040
25.685048545339011
1040
29.402358198393941
1070
     2
1040
25.660048545339151
1040
29.402358198393941
1040
0.0249999999998636
1040
0.0
1040
3.1415926535897918
1070
     1
1070
     1
1040
25.635048545339281
1040
29.402358198393941
1040
25.635048545339281
1040
29.302358198394039
1070
     1
1040
25.635048545339281
1040
29.302358198394039
1040
25.580048545339221
1040
29.302358198394039
1070
     1
1040
25.580048545339221
1040
29.302358198394039
1040
25.580048545339221
1040
30.06235819839403
1070
     1
1040
25.580048545339221
1040
30.06235819839403
1040
25.635048545339512
1040
30.06235819839403
1070
     1
1040
25.635048545339512
1040
30.06235819839403
1040
25.635048545339512
1040
30.012358198393962
1071
        1
1005
34CC3
1070
     0
1070
     1
1071
        1
1040
0.0
1040
0.0
1040
0.0
1002
}
  0
VIEWPORT
  5
5D
 67
     1
  8
0
 10
5.1028366720533187
 20
3.8825525951487041
 30
0.0
 40
15.022140662638821
 41
7.835077286788092
 68
     1
 69
     1
1001
ACAD
1000
MVIEW
1002
{
1070
    16
1010
0.0
1020
0.0
1030
0.0
1010
0.0
1020
0.0
1030
1.0
1040
0.0
1040
7.835077286788092
1040
5.1028366720533187
1040
3.8825525951487041
1040
50.0
1040
0.0
1040
0.0
1070
     0
1070
   100
1070
     1
1070
     1
1070
     0
1070
     0
1070
     0
1070
     0
1040
0.0
1040
0.0
1040
0.0
1040
0.5
1040
0.5
1040
0.5
1040
0.5
1070
     0
1002
{
1002
}
1002
}
  0
ENDSEC
  0
EOF
