  0
SECTION
  2
HEADER
  9
$ACADVER
  1
AC1009
  9
$INSBASE
 10
1.2351028486011071
 20
11.247746401293711
 30
0.0
  9
$EXTMIN
 10
8.1735641538273551
 20
12.75732787456254
 30
-0.0000000349181948
  9
$EXTMAX
 10
14.49034424167062
 20
19.736320662013149
 30
0.0000000814935747
  9
$LIMMIN
 10
0.0
 20
0.0
  9
$LIMMAX
 10
12.0
 20
9.0
  9
$ORTHOMODE
 70
     1
  9
$REGENMODE
 70
     1
  9
$FILLMODE
 70
     1
  9
$QTEXTMODE
 70
     0
  9
$MIRRTEXT
 70
     0
  9
$DRAGMODE
 70
     2
  9
$LTSCALE
 40
1.0
  9
$OSMODE
 70
   123
  9
$ATTMODE
 70
     1
  9
$TEXTSIZE
 40
0.25
  9
$TRACEWID
 40
0.05
  9
$TEXTSTYLE
  7
STD
  9
$CLAYER
  8
0
  9
$CELTYPE
  6
BYLAYER
  9
$CECOLOR
 62
   256
  9
$DIMSCALE
 40
1.0
  9
$DIMASZ
 40
0.18
  9
$DIMEXO
 40
0.0625
  9
$DIMDLI
 40
0.38
  9
$DIMRND
 40
0.0
  9
$DIMDLE
 40
0.0
  9
$DIMEXE
 40
0.18
  9
$DIMTP
 40
0.0
  9
$DIMTM
 40
0.0
  9
$DIMTXT
 40
0.18
  9
$DIMCEN
 40
0.09
  9
$DIMTSZ
 40
0.0
  9
$DIMTOL
 70
     0
  9
$DIMLIM
 70
     0
  9
$DIMTIH
 70
     1
  9
$DIMTOH
 70
     1
  9
$DIMSE1
 70
     0
  9
$DIMSE2
 70
     0
  9
$DIMTAD
 70
     0
  9
$DIMZIN
 70
     0
  9
$DIMBLK
  1

  9
$DIMASO
 70
     1
  9
$DIMSHO
 70
     1
  9
$DIMPOST
  1

  9
$DIMAPOST
  1

  9
$DIMALT
 70
     0
  9
$DIMALTD
 70
     2
  9
$DIMALTF
 40
25.399999999999999
  9
$DIMLFAC
 40
1.0
  9
$DIMTOFL
 70
     0
  9
$DIMTVP
 40
0.0
  9
$DIMTIX
 70
     0
  9
$DIMSOXD
 70
     0
  9
$DIMSAH
 70
     0
  9
$DIMBLK1
  1

  9
$DIMBLK2
  1

  9
$DIMSTYLE
  2
STANDARD
  9
$DIMCLRD
 70
     0
  9
$DIMCLRE
 70
     0
  9
$DIMCLRT
 70
     0
  9
$DIMTFAC
 40
1.0
  9
$DIMGAP
 40
0.09
  9
$LUNITS
 70
     5
  9
$LUPREC
 70
     6
  9
$SKETCHINC
 40
0.1
  9
$FILLETRAD
 40
0.0
  9
$AUNITS
 70
     0
  9
$AUPREC
 70
     0
  9
$MENU
  1
.
  9
$ELEVATION
 40
0.0
  9
$PELEVATION
 40
0.0
  9
$THICKNESS
 40
0.0
  9
$LIMCHECK
 70
     0
  9
$BLIPMODE
 70
     0
  9
$CHAMFERA
 40
0.5
  9
$CHAMFERB
 40
0.5
  9
$SKPOLY
 70
     0
  9
$TDCREATE
 40
2451225.386950695
  9
$TDUPDATE
 40
2454690.6679398841
  9
$TDINDWG
 40
0.9646393056
  9
$TDUSRTIMER
 40
0.9646393056
  9
$USRTIMER
 70
     1
  9
$ANGBASE
 50
0.0
  9
$ANGDIR
 70
     0
  9
$PDMODE
 70
     3
  9
$PDSIZE
 40
0.0
  9
$PLINEWID
 40
0.0
  9
$COORDS
 70
     1
  9
$SPLFRAME
 70
     0
  9
$SPLINETYPE
 70
     6
  9
$SPLINESEGS
 70
     8
  9
$ATTDIA
 70
     0
  9
$ATTREQ
 70
     1
  9
$HANDLING
 70
     1
  9
$HANDSEED
  5
69563
  9
$SURFTAB1
 70
     6
  9
$SURFTAB2
 70
     6
  9
$SURFTYPE
 70
     6
  9
$SURFU
 70
     6
  9
$SURFV
 70
     6
  9
$UCSNAME
  2

  9
$UCSORG
 10
0.0
 20
0.0
 30
0.0
  9
$UCSXDIR
 10
1.0
 20
0.0
 30
0.0
  9
$UCSYDIR
 10
0.0
 20
1.0
 30
0.0
  9
$PUCSNAME
  2

  9
$PUCSORG
 10
0.0
 20
0.0
 30
0.0
  9
$PUCSXDIR
 10
1.0
 20
0.0
 30
0.0
  9
$PUCSYDIR
 10
0.0
 20
1.0
 30
0.0
  9
$USERI1
 70
     0
  9
$USERI2
 70
     0
  9
$USERI3
 70
     0
  9
$USERI4
 70
     0
  9
$USERI5
 70
     0
  9
$USERR1
 40
0.0
  9
$USERR2
 40
0.0
  9
$USERR3
 40
0.0
  9
$USERR4
 40
0.0
  9
$USERR5
 40
0.0
  9
$WORLDVIEW
 70
     1
  9
$SHADEDGE
 70
     3
  9
$SHADEDIF
 70
    70
  9
$TILEMODE
 70
     1
  9
$MAXACTVP
 70
    48
  9
$PLIMCHECK
 70
     0
  9
$PEXTMIN
 10
-0.0001218952091371
 20
-0.0000080246436092
 30
-0.0000000000112498
  9
$PEXTMAX
 10
10.20579523931576
 20
7.7651132149410174
 30
0.0000000000002956
  9
$PLIMMIN
 10
-0.2079161059762549
 20
-0.2079166691697489
  9
$PLIMMAX
 10
10.79208365372785
 20
8.2920830905343603
  9
$UNITMODE
 70
     0
  9
$VISRETAIN
 70
     1
  9
$PLINEGEN
 70
     0
  9
$PSLTSCALE
 70
     1
  0
ENDSEC
  0
SECTION
  2
TABLES
  0
TABLE
  2
VPORT
 70
     1
  0
VPORT
  2
*ACTIVE
 70
     0
 10
0.0
 20
0.0
 11
1.0
 21
1.0
 12
11.33195419774899
 22
16.246824268287849
 13
0.0
 23
0.0
 14
0.5
 24
0.5
 15
0.5
 25
0.5
 16
0.0
 26
0.0
 36
1.0
 17
0.0
 27
0.0
 37
0.0
 40
7.0429224923738261
 41
1.949541284403669
 42
50.0
 43
0.0
 44
0.0
 50
0.0
 51
0.0
 71
     0
 72
   100
 73
     1
 74
     1
 75
     0
 76
     0
 77
     0
 78
     0
  0
ENDTAB
  0
TABLE
  2
LTYPE
 70
     1
  0
LTYPE
  2
CONTINUOUS
 70
     0
  3
Solid line
 72
    65
 73
     0
 40
0.0
  0
ENDTAB
  0
TABLE
  2
LAYER
 70
     4
  0
LAYER
  2
0
 70
     0
 62
     7
  6
CONTINUOUS
  0
LAYER
  2
DEFPOINTS
 70
     0
 62
   252
  6
CONTINUOUS
  0
LAYER
  2
DIM
 70
     0
 62
     1
  6
CONTINUOUS
  0
LAYER
  2
HATCH
 70
     0
 62
     2
  6
CONTINUOUS
  0
ENDTAB
  0
TABLE
  2
STYLE
 70
     2
  0
STYLE
  2
STANDARD
 70
     0
 40
0.0
 41
1.0
 50
0.0
 71
     0
 42
0.2
  3
txt
  4

  0
STYLE
  2
STD
 70
     0
 40
0.0
 41
1.0
 50
0.0
 71
     0
 42
0.25
  3
txt
  4

  0
ENDTAB
  0
TABLE
  2
VIEW
 70
     3
  0
ENDTAB
  0
TABLE
  2
UCS
 70
     0
  0
ENDTAB
  0
TABLE
  2
APPID
 70
    23
  0
APPID
  2
ACAD
 70
     0
  0
APPID
  2
RAK
 70
     0
  0
APPID
  2
DCO15
 70
     0
  0
APPID
  2
ABNSLEADERTOOLS
 70
     0
  0
APPID
  2
ACAD_PSEXT
 70
     0
  0
APPID
  2
ACAD_DSTYLE_DIMTEXT_FILL
 70
     0
  0
APPID
  2
ACAECLAYERSTANDARD
 70
     0
  0
APPID
  2
ACDBBLOCKREPETAG
 70
     0
  0
APPID
  2
ACLAYERTOOLS
 70
     0
  0
APPID
  2
ACAD_DSTYLE_DIMJAG
 70
     0
  0
APPID
  2
ACAD_DSTYLE_DIMBREAK
 70
     0
  0
APPID
  2
ACADANNOTATIVE
 70
     0
  0
APPID
  2
ACAD_DSTYLE_DIMTALN
 70
     0
  0
APPID
  2
ACADANNOAV
 70
     0
  0
APPID
  2
ACAD_MLEADERVER
 70
     0
  0
APPID
  2
ACADANNOPO
 70
     0
  0
APPID
  2
ACAD_DSTYLE_DIMRADIAL_EXTENSION
 70
     0
  0
APPID
  2
ACDBDYNAMICBLOCKTRUENAME
 70
     0
  0
APPID
  2
ACDBDYNAMICBLOCKGUID
 70
     0
  0
APPID
  2
ACAUTHENVIRON
 70
     0
  0
APPID
  2
ACDBBLOCKREPBTAG
 70
     0
  0
APPID
  2
ALLEGRO
 70
     0
  0
APPID
  2
ACDBATTR
 70
     0
  0
ENDTAB
  0
TABLE
  2
DIMSTYLE
 70
     3
  0
DIMSTYLE
  2
STANDARD
 70
     0
  3

  4

  5

  6

  7

 40
1.0
 41
0.18
 42
0.0625
 43
0.38
 44
0.18
 45
0.0
 46
0.0
 47
0.0
 48
0.0
140
0.18
141
0.09
142
0.0
143
25.399999999999999
144
1.0
145
0.0
146
1.0
147
0.09
 71
     0
 72
     0
 73
     1
 74
     1
 75
     0
 76
     0
 77
     0
 78
     0
170
     0
171
     2
172
     0
173
     0
174
     0
175
     0
176
     0
177
     0
178
     0
  0
ENDTAB
  0
ENDSEC
  0
SECTION
  2
BLOCKS
  0
BLOCK
  8
0
  2
$MODEL_SPACE
 70
     0
 10
0.0
 20
0.0
 30
0.0
  3
$MODEL_SPACE
  1

  0
ENDBLK
  5
69377
  8
0
  0
BLOCK
 67
     1
  8
0
  2
$PAPER_SPACE
 70
     0
 10
0.0
 20
0.0
 30
0.0
  3
$PAPER_SPACE
  1

  0
ENDBLK
  5
69373
 67
     1
  8
0
  0
BLOCK
  8
0
  2
ALLEGRO_TABLET_TOOLS
 70
     0
 10
0.0
 20
0.0
 30
0.0
  3
ALLEGRO_TABLET_TOOLS
  1
ALLEGRO_TABLET_TOOLS
  0
ATTDEF
  5
30E5D
  8
0
 10
0.0
 20
0.0
 30
0.0
 40
0.0001
  1
allegro
  3

  2

 70
    11
  0
ENDBLK
  5
30E5E
  8
0
  0
BLOCK
  8
0
  2
*D4
 70
     1
 10
0.0
 20
0.0
 30
0.0
  3
*D4
  1

  0
LINE
  5
69326
  8
DIM
 62
     3
 10
12.37995979425885
 20
14.58261601584076
 30
0.0
 11
12.37995979425885
 21
13.90968156415876
 31
0.0
  0
LINE
  5
69327
  8
DIM
 62
     3
 10
13.47395979425885
 20
14.58261601584076
 30
0.0
 11
13.47395979425885
 21
13.90968156415876
 31
0.0
  0
LINE
  5
69328
  8
DIM
 62
     2
 10
12.62995979425885
 20
14.189681564158761
 30
0.0
 11
13.22395979425885
 21
14.189681564158761
 31
0.0
  0
TEXT
  5
6933F
  8
DIM
 10
12.442399999999999
 20
13.3413
 30
0.0
 40
0.25
  1
1 1/8"
  7
STD
  0
SOLID
  5
6932A
  8
DIM
 62
     2
 10
12.62995979425885
 20
14.23134823082543
 30
0.0
 11
12.62995979425885
 21
14.1480148974921
 31
0.0
 12
12.37995979425885
 22
14.189681564158761
 32
0.0
 13
12.37995979425885
 23
14.189681564158761
 33
0.0
  0
SOLID
  5
6932B
  8
DIM
 62
     2
 10
13.22395979425885
 20
14.23134823082543
 30
0.0
 11
13.22395979425885
 21
14.1480148974921
 31
0.0
 12
13.47395979425885
 22
14.189681564158761
 32
0.0
 13
13.47395979425885
 23
14.189681564158761
 33
0.0
  0
POINT
  5
6932C
  8
DEFPOINTS
 62
     0
 10
12.37995979425885
 20
14.72261601584076
 30
0.0
  0
POINT
  5
6932D
  8
DEFPOINTS
 62
     0
 10
13.47395979425885
 20
14.72261601584076
 30
0.0
  0
POINT
  5
6932E
  8
DEFPOINTS
 62
     0
 10
13.47395979425885
 20
14.189681564158761
 30
0.0
  0
ENDBLK
  5
30F37
  8
0
  0
BLOCK
  8
0
  2
*D5
 70
     1
 10
0.0
 20
0.0
 30
0.0
  3
*D5
  1

  0
LINE
  5
30FDD
  8
DIM
 62
     3
 10
11.38055594048042
 20
14.58261601584076
 30
0.0
 11
11.38055594048042
 21
12.7576302627399
 31
0.0
  0
LINE
  5
30FDE
  8
DIM
 62
     3
 10
14.474148108171571
 20
14.58261601584076
 30
0.0
 11
14.474148108171571
 21
12.7576302627399
 31
0.0
  0
LINE
  5
30FDF
  8
DIM
 62
     2
 10
11.63055594048042
 20
13.037630262739899
 30
0.0
 11
12.31249527125642
 21
13.037630262739899
 31
0.0
  0
LINE
  5
30FE0
  8
DIM
 62
     2
 10
14.224148108171571
 20
13.037630262739899
 30
0.0
 11
13.542208777395571
 21
13.037630262739899
 31
0.0
  0
SOLID
  5
30FE1
  8
DIM
 62
     2
 10
11.63055594048042
 20
13.07929692940656
 30
0.0
 11
11.63055594048042
 21
12.99596359607323
 31
0.0
 12
11.38055594048042
 22
13.037630262739899
 32
0.0
 13
11.38055594048042
 23
13.037630262739899
 33
0.0
  0
SOLID
  5
30FE2
  8
DIM
 62
     2
 10
14.224148108171571
 20
13.07929692940656
 30
0.0
 11
14.224148108171571
 21
12.99596359607323
 31
0.0
 12
14.474148108171571
 22
13.037630262739899
 32
0.0
 13
14.474148108171571
 23
13.037630262739899
 33
0.0
  0
INSERT
  5
30FE3
  8
0
  2
*U6
 10
0.0
 20
0.0
 30
0.0
  0
POINT
  5
30FE4
  8
DEFPOINTS
 62
     0
 10
11.38055594048042
 20
14.72261601584076
 30
0.0
  0
POINT
  5
30FE5
  8
DEFPOINTS
 62
     0
 10
14.474148108171571
 20
14.72261601584076
 30
0.0
  0
POINT
  5
30FE6
  8
DEFPOINTS
 62
     0
 10
14.474148108171571
 20
13.037630262739899
 30
0.0
  0
ENDBLK
  5
30F75
  8
0
  0
BLOCK
  8
0
  2
*U6
 70
     1
 10
0.0
 20
0.0
 30
0.0
  3
*U6
  1

  0
TEXT
  5
69330
  8
DIM
 10
12.47782951409407
 20
12.914847179520249
 30
0.0
 40
0.25
  1
3 1/8"
  7
STD
  0
ENDBLK
  5
69332
  8
0
  0
BLOCK
  8
0
  2
*D7
 70
     1
 10
0.0
 20
0.0
 30
0.0
  3
*D7
  1

  0
LINE
  5
30FE7
  8
DIM
 62
     3
 10
11.22445979425885
 20
14.72261601584076
 30
0.0
 11
8.1741576593767231
 21
14.72261601584076
 31
0.0
  0
LINE
  5
30FE8
  8
DIM
 62
     3
 10
12.75570979425879
 20
19.735116015840742
 30
0.0
 11
8.1741576593767231
 21
19.735116015840742
 31
0.0
  0
LINE
  5
30FE9
  8
DIM
 62
     2
 10
8.454157659376726
 20
14.97261601584076
 30
0.0
 11
8.454157659376726
 21
16.921734365090408
 31
0.0
  0
LINE
  5
30FEA
  8
DIM
 62
     2
 10
8.454157659376726
 20
19.485116015840742
 30
0.0
 11
8.454157659376726
 21
17.535997666591101
 31
0.0
  0
SOLID
  5
30FEB
  8
DIM
 62
     2
 10
8.4124909927100582
 20
14.97261601584076
 30
0.0
 11
8.4958243260433921
 21
14.97261601584076
 31
0.0
 12
8.454157659376726
 22
14.72261601584076
 32
0.0
 13
8.454157659376726
 23
14.72261601584076
 33
0.0
  0
SOLID
  5
30FEC
  8
DIM
 62
     2
 10
8.4124909927100582
 20
19.485116015840742
 30
0.0
 11
8.4958243260433921
 21
19.485116015840742
 31
0.0
 12
8.454157659376726
 22
19.735116015840742
 32
0.0
 13
8.454157659376726
 23
19.735116015840742
 33
0.0
  0
INSERT
  5
30FED
  8
0
  2
*U8
 10
0.0
 20
0.0
 30
0.0
  0
POINT
  5
30FEE
  8
DEFPOINTS
 62
     0
 10
11.364459794258851
 20
14.72261601584076
 30
0.0
  0
POINT
  5
30FEF
  8
DEFPOINTS
 62
     0
 10
12.89570979425879
 20
19.735116015840742
 30
0.0
  0
POINT
  5
30FF0
  8
DEFPOINTS
 62
     0
 10
8.454157659376726
 20
19.735116015840742
 30
0.0
  0
ENDBLK
  5
30FA1
  8
0
  0
BLOCK
  8
0
  2
*U8
 70
     1
 10
0.0
 20
0.0
 30
0.0
  3
*U8
  1

  0
TEXT
  5
69334
  8
DIM
 10
8.2959891737014182
 20
17.105997666591101
 30
0.0
 40
0.25
  1
5"
  7
STD
  0
ENDBLK
  5
69336
  8
0
  0
BLOCK
  8
0
  2
*D9
 70
     1
 10
0.0
 20
0.0
 30
0.0
  3
*D9
  1

  0
LINE
  5
30FF1
  8
DIM
 62
     3
 10
11.22445979425885
 20
14.72261601584076
 30
0.0
 11
9.2490648989309676
 21
14.72261601584076
 31
0.0
  0
LINE
  5
30FF2
  8
DIM
 62
     3
 10
11.22445979425885
 20
17.72261601584076
 30
0.0
 11
9.2490648989309676
 21
17.72261601584076
 31
0.0
  0
LINE
  5
30FF3
  8
DIM
 62
     2
 10
9.5290648989309688
 20
14.97261601584076
 30
0.0
 11
9.5290648989309688
 21
15.914887502880321
 31
0.0
  0
LINE
  5
30FF4
  8
DIM
 62
     2
 10
9.5290648989309688
 20
17.47261601584076
 30
0.0
 11
9.5290648989309688
 21
16.530344528801201
 31
0.0
  0
SOLID
  5
30FF5
  8
DIM
 62
     2
 10
9.4873982322643027
 20
14.97261601584076
 30
0.0
 11
9.5707315655976348
 21
14.97261601584076
 31
0.0
 12
9.5290648989309688
 22
14.72261601584076
 32
0.0
 13
9.5290648989309688
 23
14.72261601584076
 33
0.0
  0
SOLID
  5
30FF6
  8
DIM
 62
     2
 10
9.4873982322643027
 20
17.47261601584076
 30
0.0
 11
9.5707315655976348
 21
17.47261601584076
 31
0.0
 12
9.5290648989309688
 22
17.72261601584076
 32
0.0
 13
9.5290648989309688
 23
17.72261601584076
 33
0.0
  0
INSERT
  5
30FF7
  8
0
  2
*U10
 10
0.0
 20
0.0
 30
0.0
  0
POINT
  5
30FF8
  8
DEFPOINTS
 62
     0
 10
11.364459794258851
 20
14.72261601584076
 30
0.0
  0
POINT
  5
30FF9
  8
DEFPOINTS
 62
     0
 10
11.364459794258851
 20
17.72261601584076
 30
0.0
  0
POINT
  5
30FFA
  8
DEFPOINTS
 62
     0
 10
9.5290648989309688
 20
17.72261601584076
 30
0.0
  0
ENDBLK
  5
30FB9
  8
0
  0
BLOCK
  8
0
  2
*U10
 70
     1
 10
0.0
 20
0.0
 30
0.0
  3
*U10
  1

  0
TEXT
  5
69338
  8
DIM
 10
9.3708111472256466
 20
16.099832932621119
 30
0.0
 40
0.25
  1
3"
  7
STD
  0
ENDBLK
  5
6933A
  8
0
  0
BLOCK
  8
0
  2
*D11
 70
     1
 10
0.0
 20
0.0
 30
0.0
  3
*D11
  1

  0
LINE
  5
30FFB
  8
DIM
 62
     3
 10
11.22445979425885
 20
14.72261601584076
 30
0.0
 11
10.20109469819055
 21
14.72261601584076
 31
0.0
  0
LINE
  5
30FFC
  8
DIM
 62
     3
 10
12.22445979425885
 20
15.59761601584076
 30
0.0
 11
10.20109469819055
 21
15.59761601584076
 31
0.0
  0
LINE
  5
30FFD
  8
DIM
 62
     2
 10
10.48109469819055
 20
14.97261601584076
 30
0.0
 11
10.48109469819055
 21
15.34761601584076
 31
0.0
  0
LINE
  5
30FFE
  8
DIM
 62
     2
 10
10.23109469819055
 20
14.18311562429342
 30
0.0
 11
10.48109469819055
 21
14.18311562429342
 31
0.0
  0
LINE
  5
30FFF
  8
DIM
 62
     2
 10
10.48109469819055
 20
14.18311562429342
 30
0.0
 11
10.48109469819055
 21
14.72261601584076
 31
0.0
  0
INSERT
  5
31000
  8
0
  2
*U12
 10
0.0
 20
0.0
 30
0.0
  0
SOLID
  5
31001
  8
DIM
 62
     2
 10
10.43942803152388
 20
14.97261601584076
 30
0.0
 11
10.522761364857219
 21
14.97261601584076
 31
0.0
 12
10.48109469819055
 22
14.72261601584076
 32
0.0
 13
10.48109469819055
 23
14.72261601584076
 33
0.0
  0
SOLID
  5
31002
  8
DIM
 62
     2
 10
10.43942803152388
 20
15.34761601584076
 30
0.0
 11
10.522761364857219
 21
15.34761601584076
 31
0.0
 12
10.48109469819055
 22
15.59761601584076
 32
0.0
 13
10.48109469819055
 23
15.59761601584076
 33
0.0
  0
POINT
  5
31003
  8
DEFPOINTS
 62
     0
 10
11.364459794258851
 20
14.72261601584076
 30
0.0
  0
POINT
  5
31004
  8
DEFPOINTS
 62
     0
 10
12.364459794258851
 20
15.59761601584076
 30
0.0
  0
POINT
  5
31005
  8
DEFPOINTS
 62
     0
 10
10.48109469819055
 20
15.59761601584076
 30
0.0
  0
ENDBLK
  5
30FC8
  8
0
  0
BLOCK
  8
0
  2
*U12
 70
     1
 10
0.0
 20
0.0
 30
0.0
  3
*U12
  1

  0
TEXT
  5
6933C
  8
DIM
 10
9.4579841934156512
 20
14.060247275043761
 30
0.0
 40
0.25
  1
7/8"
  7
STD
  0
ENDBLK
  5
6933E
  8
0
  0
BLOCK
  8
0
  2
*X103
 70
     1
 10
0.0
 20
0.0
 30
0.0
  3
*X103
  1

  0
LINE
  5
691CF
  8
0
 62
     0
 10
14.39952610043404
 20
17.610116015840742
 30
0.0
 11
14.426959794258901
 21
17.63754970966561
 31
0.0
  0
LINE
  5
691D0
  8
0
 62
     0
 10
14.31113775278572
 20
17.610116015840742
 30
0.0
 11
14.37363775278576
 21
17.672616015840781
 31
0.0
  0
LINE
  5
691D1
  8
0
 62
     0
 10
14.22274940513741
 20
17.610116015840742
 30
0.0
 11
14.28524940513744
 21
17.672616015840781
 31
0.0
  0
LINE
  5
691D2
  8
0
 62
     0
 10
14.134361057489089
 20
17.610116015840742
 30
0.0
 11
14.196861057489119
 21
17.672616015840781
 31
0.0
  0
LINE
  5
691D3
  8
0
 62
     0
 10
14.04597270984077
 20
17.610116015840742
 30
0.0
 11
14.1084727098408
 21
17.672616015840781
 31
0.0
  0
LINE
  5
691D4
  8
0
 62
     0
 10
13.957584362192449
 20
17.610116015840742
 30
0.0
 11
14.020084362192479
 21
17.672616015840781
 31
0.0
  0
LINE
  5
691D5
  8
0
 62
     0
 10
13.86919601454413
 20
17.610116015840742
 30
0.0
 11
13.93169601454416
 21
17.672616015840781
 31
0.0
  0
LINE
  5
691D6
  8
0
 62
     0
 10
13.78080766689582
 20
17.610116015840742
 30
0.0
 11
13.843307666895839
 21
17.67261601584077
 31
0.0
  0
LINE
  5
691D7
  8
0
 62
     0
 10
13.69241931924749
 20
17.610116015840742
 30
0.0
 11
13.75491931924752
 21
17.67261601584077
 31
0.0
  0
LINE
  5
691D8
  8
0
 62
     0
 10
13.60403097159918
 20
17.610116015840742
 30
0.0
 11
13.666530971599199
 21
17.67261601584077
 31
0.0
  0
LINE
  5
691D9
  8
0
 62
     0
 10
13.51564262395086
 20
17.610116015840742
 30
0.0
 11
13.578142623950869
 21
17.67261601584077
 31
0.0
  0
LINE
  5
691DA
  8
0
 62
     0
 10
13.42725427630254
 20
17.610116015840742
 30
0.0
 11
13.48975427630255
 21
17.672616015840759
 31
0.0
  0
LINE
  5
691DB
  8
0
 62
     0
 10
13.33886592865422
 20
17.610116015840742
 30
0.0
 11
13.40136592865422
 21
17.672616015840759
 31
0.0
  0
LINE
  5
691DC
  8
0
 62
     0
 10
13.250477581005899
 20
17.610116015840742
 30
0.0
 11
13.312977581005921
 21
17.672616015840759
 31
0.0
  0
LINE
  5
691DD
  8
0
 62
     0
 10
13.162089233357589
 20
17.610116015840742
 30
0.0
 11
13.224589233357589
 21
17.672616015840759
 31
0.0
  0
LINE
  5
691DE
  8
0
 62
     0
 10
13.073700885709259
 20
17.610116015840742
 30
0.0
 11
13.13620088570927
 21
17.672616015840759
 31
0.0
  0
LINE
  5
691DF
  8
0
 62
     0
 10
12.985312538060951
 20
17.610116015840742
 30
0.0
 11
13.047812538060951
 21
17.672616015840742
 31
0.0
  0
LINE
  5
691E0
  8
0
 62
     0
 10
12.89692419041263
 20
17.610116015840742
 30
0.0
 11
12.95942419041263
 21
17.672616015840742
 31
0.0
  0
LINE
  5
691E1
  8
0
 62
     0
 10
12.895709794258901
 20
17.69728996733534
 30
0.0
 11
12.958209794258901
 21
17.75978996733534
 31
0.0
  0
LINE
  5
691E2
  8
0
 62
     0
 10
12.808535842764311
 20
17.610116015840742
 30
0.0
 11
12.871035842764311
 21
17.672616015840742
 31
0.0
  0
LINE
  5
691E3
  8
0
 62
     0
 10
12.895709794258901
 20
17.785678314983659
 30
0.0
 11
12.958209794258901
 21
17.848178314983659
 31
0.0
  0
LINE
  5
691E4
  8
0
 62
     0
 10
12.72014749511599
 20
17.610116015840742
 30
0.0
 11
12.78264749511599
 21
17.672616015840742
 31
0.0
  0
LINE
  5
691E5
  8
0
 62
     0
 10
12.895709794258901
 20
17.874066662631972
 30
0.0
 11
12.958209794258901
 21
17.936566662631979
 31
0.0
  0
LINE
  5
691E6
  8
0
 62
     0
 10
12.631759147467671
 20
17.610116015840742
 30
0.0
 11
12.694259147467671
 21
17.672616015840742
 31
0.0
  0
LINE
  5
691E7
  8
0
 62
     0
 10
12.89570979425889
 20
17.96245501028028
 30
0.0
 11
12.958209794258901
 21
18.024955010280301
 31
0.0
  0
LINE
  5
691E8
  8
0
 62
     0
 10
12.54337079981935
 20
17.610116015840742
 30
0.0
 11
12.60587079981936
 21
17.672616015840742
 31
0.0
  0
LINE
  5
691E9
  8
0
 62
     0
 10
12.895709794258879
 20
18.050843357928599
 30
0.0
 11
12.958209794258909
 21
18.11334335792862
 31
0.0
  0
LINE
  5
691EA
  8
0
 62
     0
 10
12.454982452171039
 20
17.610116015840742
 30
0.0
 11
12.517482452171039
 21
17.672616015840742
 31
0.0
  0
LINE
  5
691EB
  8
0
 62
     0
 10
12.895709794258879
 20
18.139231705576911
 30
0.0
 11
12.958209794258901
 21
18.201731705576918
 31
0.0
  0
LINE
  5
691EC
  8
0
 62
     0
 10
12.36659410452272
 20
17.610116015840742
 30
0.0
 11
12.42909410452272
 21
17.672616015840742
 31
0.0
  0
LINE
  5
691ED
  8
0
 62
     0
 10
12.895709794258879
 20
18.22762005322523
 30
0.0
 11
12.958209794258909
 21
18.290120053225252
 31
0.0
  0
LINE
  5
691EE
  8
0
 62
     0
 10
12.278205756874399
 20
17.610116015840742
 30
0.0
 11
12.340705756874399
 21
17.672616015840742
 31
0.0
  0
LINE
  5
691EF
  8
0
 62
     0
 10
12.89570979425887
 20
18.316008400873532
 30
0.0
 11
12.958209794258909
 21
18.378508400873571
 31
0.0
  0
LINE
  5
691F0
  8
0
 62
     0
 10
12.18981740922608
 20
17.610116015840742
 30
0.0
 11
12.25231740922608
 21
17.672616015840742
 31
0.0
  0
LINE
  5
691F1
  8
0
 62
     0
 10
12.89570979425886
 20
18.40439674852184
 30
0.0
 11
12.958209794258901
 21
18.46689674852189
 31
0.0
  0
LINE
  5
691F2
  8
0
 62
     0
 10
12.101429061577759
 20
17.610116015840742
 30
0.0
 11
12.16392906157777
 21
17.672616015840742
 31
0.0
  0
LINE
  5
691F3
  8
0
 62
     0
 10
12.89570979425886
 20
18.49278509617017
 30
0.0
 11
12.958209794258901
 21
18.555285096170198
 31
0.0
  0
LINE
  5
691F4
  8
0
 62
     0
 10
12.013040713929451
 20
17.610116015840742
 30
0.0
 11
12.075540713929451
 21
17.672616015840742
 31
0.0
  0
LINE
  5
691F5
  8
0
 62
     0
 10
12.895709794258851
 20
18.581173443818479
 30
0.0
 11
12.958209794258901
 21
18.643673443818521
 31
0.0
  0
LINE
  5
691F6
  8
0
 62
     0
 10
11.924652366281119
 20
17.610116015840742
 30
0.0
 11
11.98715236628113
 21
17.672616015840742
 31
0.0
  0
LINE
  5
691F7
  8
0
 62
     0
 10
12.895709794258851
 20
18.669561791466791
 30
0.0
 11
12.958209794258901
 21
18.73206179146684
 31
0.0
  0
LINE
  5
691F8
  8
0
 62
     0
 10
11.836264018632811
 20
17.610116015840742
 30
0.0
 11
11.898764018632811
 21
17.672616015840742
 31
0.0
  0
LINE
  5
691F9
  8
0
 62
     0
 10
12.895709794258851
 20
18.757950139115088
 30
0.0
 11
12.958209794258901
 21
18.82045013911517
 31
0.0
  0
LINE
  5
691FA
  8
0
 62
     0
 10
11.74787567098449
 20
17.610116015840742
 30
0.0
 11
11.81037567098449
 21
17.672616015840742
 31
0.0
  0
LINE
  5
691FB
  8
0
 62
     0
 10
12.89570979425884
 20
18.846338486763411
 30
0.0
 11
12.958209794258901
 21
18.908838486763479
 31
0.0
  0
LINE
  5
691FC
  8
0
 62
     0
 10
11.659487323336171
 20
17.610116015840742
 30
0.0
 11
11.721987323336171
 21
17.672616015840742
 31
0.0
  0
LINE
  5
691FD
  8
0
 62
     0
 10
12.89570979425884
 20
18.93472683441173
 30
0.0
 11
12.958209794258909
 21
18.997226834411801
 31
0.0
  0
LINE
  5
691FE
  8
0
 62
     0
 10
11.57109897568785
 20
17.610116015840742
 30
0.0
 11
11.63359897568785
 21
17.672616015840742
 31
0.0
  0
LINE
  5
691FF
  8
0
 62
     0
 10
12.895709794258829
 20
19.023115182060039
 30
0.0
 11
12.958209794258901
 21
19.085615182060121
 31
0.0
  0
LINE
  5
69200
  8
0
 62
     0
 10
11.482710628039539
 20
17.610116015840742
 30
0.0
 11
11.545210628039531
 21
17.672616015840742
 31
0.0
  0
LINE
  5
69201
  8
0
 62
     0
 10
12.895709794258829
 20
19.111503529708351
 30
0.0
 11
12.958209794258901
 21
19.174003529708418
 31
0.0
  0
LINE
  5
69202
  8
0
 62
     0
 10
11.426959794258909
 20
17.64275352970844
 30
0.0
 11
11.45682228039121
 21
17.672616015840742
 31
0.0
  0
LINE
  5
69203
  8
0
 62
     0
 10
12.895709794258821
 20
19.19989187735667
 30
0.0
 11
12.958209794258901
 21
19.262391877356752
 31
0.0
  0
LINE
  5
69204
  8
0
 62
     0
 10
12.895709794258821
 20
19.288280225004989
 30
0.0
 11
12.958209794258901
 21
19.350780225005071
 31
0.0
  0
LINE
  5
69205
  8
0
 62
     0
 10
12.89570979425881
 20
19.376668572653301
 30
0.0
 11
12.958209794258901
 21
19.43916857265339
 31
0.0
  0
LINE
  5
69206
  8
0
 62
     0
 10
12.89570979425881
 20
19.46505692030162
 30
0.0
 11
12.958209794258901
 21
19.527556920301699
 31
0.0
  0
LINE
  5
69207
  8
0
 62
     0
 10
12.895709794258799
 20
19.553445267949922
 30
0.0
 11
12.958209794258901
 21
19.615945267950028
 31
0.0
  0
LINE
  5
69208
  8
0
 62
     0
 10
12.895709794258799
 20
19.641833615598241
 30
0.0
 11
12.958209794258901
 21
19.704333615598351
 31
0.0
  0
LINE
  5
69209
  8
0
 62
     0
 10
12.89570979425879
 20
19.73022196324656
 30
0.0
 11
12.90060384685299
 21
19.735116015840742
 31
0.0
  0
ENDBLK
  5
6920B
  8
0
  0
BLOCK
  8
0
  2
*X104
 70
     1
 10
0.0
 20
0.0
 30
0.0
  3
*X104
  1

  0
LINE
  5
6920D
  8
0
 62
     0
 10
14.489459794258851
 20
17.7125081497963
 30
0.0
 11
14.47935192821439
 21
17.72261601584076
 31
0.0
  0
LINE
  5
6920E
  8
0
 62
     0
 10
14.489459794258851
 20
17.66831397597214
 30
0.0
 11
14.43673241027026
 21
17.721041359960729
 31
0.0
  0
LINE
  5
6920F
  8
0
 62
     0
 10
14.489459794258851
 20
17.624119802147991
 30
0.0
 11
14.408714426765
 21
17.704865169641842
 31
0.0
  0
LINE
  5
69210
  8
0
 62
     0
 10
14.39676940674191
 20
17.67261601584077
 30
0.0
 11
14.38069644325974
 21
17.688688979322919
 31
0.0
  0
LINE
  5
69211
  8
0
 62
     0
 10
14.489459794258851
 20
17.579925628323821
 30
0.0
 11
14.439459794258839
 21
17.629925628323829
 31
0.0
  0
LINE
  5
69212
  8
0
 62
     0
 10
14.489459794258851
 20
17.535731454499668
 30
0.0
 11
14.41507523291777
 21
17.610116015840742
 31
0.0
  0
LINE
  5
69213
  8
0
 62
     0
 10
14.42088105909362
 20
17.560116015840741
 30
0.0
 11
14.370881059093611
 21
17.610116015840742
 31
0.0
  0
LINE
  5
69214
  8
0
 62
     0
 10
14.489459794258851
 20
17.491537280675509
 30
0.0
 11
14.43945979425885
 21
17.541537280675509
 31
0.0
  0
LINE
  5
69215
  8
0
 62
     0
 10
14.376686885269461
 20
17.560116015840741
 30
0.0
 11
14.32668688526944
 21
17.610116015840742
 31
0.0
  0
LINE
  5
69216
  8
0
 62
     0
 10
14.489459794258851
 20
17.447343106851338
 30
0.0
 11
14.439186885269461
 21
17.497616015840741
 31
0.0
  0
LINE
  5
69217
  8
0
 62
     0
 10
14.332492711445299
 20
17.560116015840741
 30
0.0
 11
14.31945979425892
 21
17.57314893302712
 31
0.0
  0
LINE
  5
69218
  8
0
 62
     0
 10
14.489459794258851
 20
17.40314893302719
 30
0.0
 11
14.394992711445299
 21
17.497616015840741
 31
0.0
  0
LINE
  5
69219
  8
0
 62
     0
 10
14.40079853762114
 20
17.44761601584074
 30
0.0
 11
14.35079853762114
 21
17.497616015840741
 31
0.0
  0
LINE
  5
6921A
  8
0
 62
     0
 10
14.489459794258851
 20
17.35895475920303
 30
0.0
 11
14.43945979425879
 21
17.408954759203091
 31
0.0
  0
LINE
  5
6921B
  8
0
 62
     0
 10
14.369459794258979
 20
17.434760585378751
 30
0.0
 11
14.323032079027991
 21
17.48118830060972
 31
0.0
  0
LINE
  5
6921C
  8
0
 62
     0
 10
14.489459794258851
 20
17.31476058537887
 30
0.0
 11
14.43945979425879
 21
17.364760585378932
 31
0.0
  0
LINE
  5
6921D
  8
0
 62
     0
 10
14.369459794258979
 20
17.39056641155458
 30
0.0
 11
14.319459794258989
 21
17.44056641155457
 31
0.0
  0
LINE
  5
6921E
  8
0
 62
     0
 10
14.489459794258851
 20
17.270566411554711
 30
0.0
 11
14.43945979425879
 21
17.320566411554768
 31
0.0
  0
LINE
  5
6921F
  8
0
 62
     0
 10
14.33821601614863
 20
17.377616015840761
 30
0.0
 11
14.319459794258981
 21
17.396372237730422
 31
0.0
  0
LINE
  5
69220
  8
0
 62
     0
 10
14.489459794258851
 20
17.226372237730551
 30
0.0
 11
14.43945979425879
 21
17.276372237730609
 31
0.0
  0
LINE
  5
69221
  8
0
 62
     0
 10
14.489459794258851
 20
17.182178063906392
 30
0.0
 11
14.436021842324511
 21
17.235616015840741
 31
0.0
  0
LINE
  5
69222
  8
0
 62
     0
 10
14.36945979425894
 20
17.25798389008213
 30
0.0
 11
14.34182766850034
 21
17.285616015840741
 31
0.0
  0
LINE
  5
69223
  8
0
 62
     0
 10
14.489459794258851
 20
17.137983890082221
 30
0.0
 11
14.391827668500341
 21
17.235616015840741
 31
0.0
  0
LINE
  5
69224
  8
0
 62
     0
 10
14.397633494676191
 20
17.18561601584074
 30
0.0
 11
14.319459794258959
 21
17.263789716257961
 31
0.0
  0
LINE
  5
69225
  8
0
 62
     0
 10
14.489459794258851
 20
17.093789716258069
 30
0.0
 11
14.399459794258849
 21
17.183789716258069
 31
0.0
  0
LINE
  5
69226
  8
0
 62
     0
 10
14.353439320852029
 20
17.18561601584074
 30
0.0
 11
14.319459794258989
 21
17.21959554243378
 31
0.0
  0
LINE
  5
69227
  8
0
 62
     0
 10
14.489459794258851
 20
17.04959554243392
 30
0.0
 11
14.399459794258849
 21
17.13959554243392
 31
0.0
  0
LINE
  5
69228
  8
0
 62
     0
 10
14.489459794258851
 20
17.00540136860976
 30
0.0
 11
14.399459794258849
 21
17.09540136860975
 31
0.0
  0
LINE
  5
69229
  8
0
 62
     0
 10
14.489459794258851
 20
16.961207194785601
 30
0.0
 11
14.399459794258849
 21
17.051207194785601
 31
0.0
  0
LINE
  5
6922A
  8
0
 62
     0
 10
14.489459794258851
 20
16.917013020961431
 30
0.0
 11
14.399459794258849
 21
17.007013020961441
 31
0.0
  0
LINE
  5
6922B
  8
0
 62
     0
 10
14.489459794258851
 20
16.872818847137282
 30
0.0
 11
14.399459794258849
 21
16.962818847137282
 31
0.0
  0
LINE
  5
6922C
  8
0
 62
     0
 10
14.489459794258851
 20
16.828624673313119
 30
0.0
 11
14.399459794258849
 21
16.918624673313118
 31
0.0
  0
LINE
  5
6922D
  8
0
 62
     0
 10
14.489459794258851
 20
16.784430499488959
 30
0.0
 11
14.399459794258849
 21
16.874430499488959
 31
0.0
  0
LINE
  5
6922E
  8
0
 62
     0
 10
14.489459794258851
 20
16.740236325664799
 30
0.0
 11
14.399459794258849
 21
16.830236325664799
 31
0.0
  0
LINE
  5
6922F
  8
0
 62
     0
 10
14.489459794258851
 20
16.69604215184064
 30
0.0
 11
14.399459794258849
 21
16.78604215184065
 31
0.0
  0
LINE
  5
69230
  8
0
 62
     0
 10
14.489459794258851
 20
16.65184797801648
 30
0.0
 11
14.399459794258849
 21
16.74184797801648
 31
0.0
  0
LINE
  5
69231
  8
0
 62
     0
 10
14.489459794258851
 20
16.607653804192321
 30
0.0
 11
14.399459794258849
 21
16.697653804192331
 31
0.0
  0
LINE
  5
69232
  8
0
 62
     0
 10
14.489459794258851
 20
16.563459630368168
 30
0.0
 11
14.399459794258849
 21
16.653459630368161
 31
0.0
  0
LINE
  5
69233
  8
0
 62
     0
 10
14.489459794258851
 20
16.519265456544009
 30
0.0
 11
14.399459794258849
 21
16.609265456544009
 31
0.0
  0
LINE
  5
69234
  8
0
 62
     0
 10
14.489459794258851
 20
16.475071282719838
 30
0.0
 11
14.399459794258849
 21
16.565071282719849
 31
0.0
  0
LINE
  5
69235
  8
0
 62
     0
 10
14.489459794258851
 20
16.430877108895679
 30
0.0
 11
14.399459794258849
 21
16.520877108895689
 31
0.0
  0
LINE
  5
69236
  8
0
 62
     0
 10
14.489459794258851
 20
16.38668293507153
 30
0.0
 11
14.399459794258849
 21
16.47668293507153
 31
0.0
  0
LINE
  5
69237
  8
0
 62
     0
 10
14.489459794258851
 20
16.34248876124737
 30
0.0
 11
14.399459794258849
 21
16.43248876124737
 31
0.0
  0
LINE
  5
69238
  8
0
 62
     0
 10
14.489459794258851
 20
16.298294587423211
 30
0.0
 11
14.399459794258849
 21
16.388294587423211
 31
0.0
  0
LINE
  5
69239
  8
0
 62
     0
 10
14.489459794258851
 20
16.254100413599051
 30
0.0
 11
14.399459794258849
 21
16.344100413599051
 31
0.0
  0
LINE
  5
6923A
  8
0
 62
     0
 10
14.489459794258851
 20
16.209906239774892
 30
0.0
 11
14.399459794258849
 21
16.299906239774892
 31
0.0
  0
LINE
  5
6923B
  8
0
 62
     0
 10
14.489459794258851
 20
16.165712065950729
 30
0.0
 11
14.399459794258849
 21
16.255712065950728
 31
0.0
  0
LINE
  5
6923C
  8
0
 62
     0
 10
14.489459794258851
 20
16.121517892126569
 30
0.0
 11
14.399459794258849
 21
16.211517892126569
 31
0.0
  0
LINE
  5
6923D
  8
0
 62
     0
 10
14.489459794258851
 20
16.077323718302399
 30
0.0
 11
14.399459794258849
 21
16.167323718302399
 31
0.0
  0
LINE
  5
6923E
  8
0
 62
     0
 10
14.489459794258851
 20
16.03312954447825
 30
0.0
 11
14.399459794258849
 21
16.12312954447826
 31
0.0
  0
LINE
  5
6923F
  8
0
 62
     0
 10
14.489459794258851
 20
15.988935370654101
 30
0.0
 11
14.399459794258849
 21
16.07893537065409
 31
0.0
  0
LINE
  5
69240
  8
0
 62
     0
 10
14.48945979425884
 20
15.94474119682994
 30
0.0
 11
14.399459794258849
 21
16.034741196829941
 31
0.0
  0
LINE
  5
69241
  8
0
 62
     0
 10
14.489459794258851
 20
15.90054702300578
 30
0.0
 11
14.399459794258849
 21
15.99054702300578
 31
0.0
  0
LINE
  5
69242
  8
0
 62
     0
 10
14.489459794258851
 20
15.85635284918162
 30
0.0
 11
14.399459794258849
 21
15.94635284918162
 31
0.0
  0
LINE
  5
69243
  8
0
 62
     0
 10
14.489459794258851
 20
15.812158675357461
 30
0.0
 11
14.399459794258849
 21
15.902158675357461
 31
0.0
  0
LINE
  5
69244
  8
0
 62
     0
 10
14.489459794258851
 20
15.767964501533299
 30
0.0
 11
14.399459794258849
 21
15.857964501533299
 31
0.0
  0
LINE
  5
69245
  8
0
 62
     0
 10
14.489459794258851
 20
15.72377032770914
 30
0.0
 11
14.399459794258849
 21
15.81377032770914
 31
0.0
  0
LINE
  5
69246
  8
0
 62
     0
 10
14.489459794258851
 20
15.67957615388498
 30
0.0
 11
14.399459794258849
 21
15.76957615388498
 31
0.0
  0
LINE
  5
69247
  8
0
 62
     0
 10
14.489459794258851
 20
15.635381980060821
 30
0.0
 11
14.399459794258849
 21
15.725381980060821
 31
0.0
  0
LINE
  5
69248
  8
0
 62
     0
 10
14.48945979425884
 20
15.591187806236659
 30
0.0
 11
14.399459794258849
 21
15.681187806236659
 31
0.0
  0
LINE
  5
69249
  8
0
 62
     0
 10
14.48945979425884
 20
15.5469936324125
 30
0.0
 11
14.399459794258849
 21
15.6369936324125
 31
0.0
  0
LINE
  5
6924A
  8
0
 62
     0
 10
14.48945979425884
 20
15.50279945858834
 30
0.0
 11
14.399459794258849
 21
15.59279945858834
 31
0.0
  0
LINE
  5
6924B
  8
0
 62
     0
 10
14.489459794258851
 20
15.458605284764181
 30
0.0
 11
14.399459794258849
 21
15.54860528476418
 31
0.0
  0
LINE
  5
6924C
  8
0
 62
     0
 10
14.489459794258851
 20
15.414411110940019
 30
0.0
 11
14.399459794258849
 21
15.504411110940019
 31
0.0
  0
LINE
  5
6924D
  8
0
 62
     0
 10
14.489459794258851
 20
15.37021693711587
 30
0.0
 11
14.399459794258849
 21
15.46021693711586
 31
0.0
  0
LINE
  5
6924E
  8
0
 62
     0
 10
14.489459794258851
 20
15.326022763291711
 30
0.0
 11
14.399459794258849
 21
15.416022763291711
 31
0.0
  0
LINE
  5
6924F
  8
0
 62
     0
 10
14.489459794258851
 20
15.281828589467541
 30
0.0
 11
14.399459794258849
 21
15.371828589467549
 31
0.0
  0
LINE
  5
69250
  8
0
 62
     0
 10
14.489459794258851
 20
15.23763441564339
 30
0.0
 11
14.399459794258849
 21
15.32763441564339
 31
0.0
  0
LINE
  5
69251
  8
0
 62
     0
 10
14.489459794258851
 20
15.19344024181923
 30
0.0
 11
14.399459794258849
 21
15.28344024181923
 31
0.0
  0
LINE
  5
69252
  8
0
 62
     0
 10
14.48945979425884
 20
15.149246067995071
 30
0.0
 11
14.399459794258849
 21
15.239246067995071
 31
0.0
  0
LINE
  5
69253
  8
0
 62
     0
 10
14.48945979425884
 20
15.105051894170909
 30
0.0
 11
14.399459794258849
 21
15.195051894170909
 31
0.0
  0
LINE
  5
69254
  8
0
 62
     0
 10
14.48945979425884
 20
15.06085772034675
 30
0.0
 11
14.399459794258849
 21
15.15085772034675
 31
0.0
  0
LINE
  5
69255
  8
0
 62
     0
 10
14.489459794258851
 20
15.01666354652259
 30
0.0
 11
14.399459794258849
 21
15.10666354652259
 31
0.0
  0
LINE
  5
69256
  8
0
 62
     0
 10
14.489459794258851
 20
14.972469372698431
 30
0.0
 11
14.399459794258849
 21
15.06246937269843
 31
0.0
  0
LINE
  5
69257
  8
0
 62
     0
 10
14.489459794258851
 20
14.928275198874269
 30
0.0
 11
14.399459794258849
 21
15.018275198874271
 31
0.0
  0
LINE
  5
69258
  8
0
 62
     0
 10
14.489459794258851
 20
14.88408102505012
 30
0.0
 11
14.399459794258849
 21
14.974081025050101
 31
0.0
  0
LINE
  5
69259
  8
0
 62
     0
 10
14.489459794258851
 20
14.839886851225961
 30
0.0
 11
14.399459794258849
 21
14.92988685122595
 31
0.0
  0
LINE
  5
6925A
  8
0
 62
     0
 10
14.489459794258851
 20
14.795692677401799
 30
0.0
 11
14.360036455819881
 21
14.925116015840761
 31
0.0
  0
LINE
  5
6925B
  8
0
 62
     0
 10
14.365842281995731
 20
14.87511601584076
 30
0.0
 11
14.336959794258769
 21
14.90399850357772
 31
0.0
  0
LINE
  5
6925C
  8
0
 62
     0
 10
13.579459794258851
 20
15.66149850357764
 30
0.0
 11
13.553342281995731
 21
15.68761601584076
 31
0.0
  0
LINE
  5
6925D
  8
0
 62
     0
 10
14.48945979425884
 20
14.75149850357764
 30
0.0
 11
14.399459794258821
 21
14.841498503577659
 31
0.0
  0
LINE
  5
6925E
  8
0
 62
     0
 10
13.579459794258851
 20
15.61730432975348
 30
0.0
 11
13.509148108171569
 21
15.68761601584076
 31
0.0
  0
LINE
  5
6925F
  8
0
 62
     0
 10
14.474148108171571
 20
14.72261601584076
 30
0.0
 11
14.384148108171569
 21
14.81261601584076
 31
0.0
  0
LINE
  5
69260
  8
0
 62
     0
 10
13.579459794258851
 20
15.573110155929321
 30
0.0
 11
13.46495393434741
 21
15.68761601584076
 31
0.0
  0
LINE
  5
69261
  8
0
 62
     0
 10
11.47995393434738
 20
17.672616015840781
 30
0.0
 11
11.45111932331821
 21
17.70145062686996
 31
0.0
  0
LINE
  5
69262
  8
0
 62
     0
 10
14.429953934347409
 20
14.72261601584076
 30
0.0
 11
14.33995393434741
 21
14.81261601584076
 31
0.0
  0
LINE
  5
69263
  8
0
 62
     0
 10
11.53445979425878
 20
17.57391598210523
 30
0.0
 11
11.498259760523259
 21
17.610116015840742
 31
0.0
  0
LINE
  5
69264
  8
0
 62
     0
 10
13.579459794258851
 20
15.528915982105159
 30
0.0
 11
13.42075976052325
 21
15.68761601584076
 31
0.0
  0
LINE
  5
69265
  8
0
 62
     0
 10
11.43575976052324
 20
17.672616015840759
 30
0.0
 11
11.38575976052325
 21
17.72261601584075
 31
0.0
  0
LINE
  5
69266
  8
0
 62
     0
 10
14.38575976052325
 20
14.72261601584076
 30
0.0
 11
14.29575976052325
 21
14.81261601584076
 31
0.0
  0
LINE
  5
69267
  8
0
 62
     0
 10
13.46656558669909
 20
15.59761601584076
 30
0.0
 11
13.37656558669909
 21
15.68761601584076
 31
0.0
  0
LINE
  5
69268
  8
0
 62
     0
 10
11.50406558669911
 20
17.560116015840741
 30
0.0
 11
11.4540655866991
 21
17.610116015840742
 31
0.0
  0
LINE
  5
69269
  8
0
 62
     0
 10
13.579459794258851
 20
15.484721808281
 30
0.0
 11
13.489459794258851
 21
15.574721808281
 31
0.0
  0
LINE
  5
6926A
  8
0
 62
     0
 10
11.41445979425885
 20
17.649721808281001
 30
0.0
 11
11.364459794258851
 21
17.699721808281002
 31
0.0
  0
LINE
  5
6926B
  8
0
 62
     0
 10
14.34156558669909
 20
14.72261601584076
 30
0.0
 11
14.25156558669909
 21
14.81261601584076
 31
0.0
  0
LINE
  5
6926C
  8
0
 62
     0
 10
13.42237141287494
 20
15.59761601584076
 30
0.0
 11
13.332371412874931
 21
15.68761601584076
 31
0.0
  0
LINE
  5
6926D
  8
0
 62
     0
 10
13.579459794258851
 20
15.44052763445684
 30
0.0
 11
13.489459794258851
 21
15.53052763445684
 31
0.0
  0
LINE
  5
6926E
  8
0
 62
     0
 10
11.45987141287495
 20
17.560116015840741
 30
0.0
 11
11.364459794258851
 21
17.655527634456831
 31
0.0
  0
LINE
  5
6926F
  8
0
 62
     0
 10
14.297371412874931
 20
14.72261601584076
 30
0.0
 11
14.207371412874931
 21
14.81261601584076
 31
0.0
  0
LINE
  5
69270
  8
0
 62
     0
 10
13.19895979425894
 20
15.77683346063259
 30
0.0
 11
13.175677239050779
 21
15.80011601584075
 31
0.0
  0
LINE
  5
69271
  8
0
 62
     0
 10
13.37817723905078
 20
15.59761601584076
 30
0.0
 11
13.28817723905077
 21
15.68761601584076
 31
0.0
  0
LINE
  5
69272
  8
0
 62
     0
 10
11.5344597942587
 20
17.44133346063283
 30
0.0
 11
11.47817723905079
 21
17.497616015840741
 31
0.0
  0
LINE
  5
69273
  8
0
 62
     0
 10
13.579459794258851
 20
15.396333460632681
 30
0.0
 11
13.489459794258851
 21
15.486333460632681
 31
0.0
  0
LINE
  5
69274
  8
0
 62
     0
 10
11.41567723905079
 20
17.560116015840741
 30
0.0
 11
11.364459794258851
 21
17.611333460632679
 31
0.0
  0
LINE
  5
69275
  8
0
 62
     0
 10
14.25317723905078
 20
14.72261601584076
 30
0.0
 11
14.16317723905077
 21
14.81261601584076
 31
0.0
  0
LINE
  5
69276
  8
0
 62
     0
 10
13.19895979425894
 20
15.73263928680843
 30
0.0
 11
13.131483065226609
 21
15.800116015840761
 31
0.0
  0
LINE
  5
69277
  8
0
 62
     0
 10
11.534459794258719
 20
17.39713928680866
 30
0.0
 11
11.48445979425872
 21
17.44713928680865
 31
0.0
  0
LINE
  5
69278
  8
0
 62
     0
 10
13.33398306522662
 20
15.59761601584076
 30
0.0
 11
13.24398306522661
 21
15.68761601584076
 31
0.0
  0
LINE
  5
69279
  8
0
 62
     0
 10
11.48398306522663
 20
17.44761601584074
 30
0.0
 11
11.433983065226631
 21
17.497616015840741
 31
0.0
  0
LINE
  5
6927A
  8
0
 62
     0
 10
13.579459794258851
 20
15.35213928680853
 30
0.0
 11
13.489459794258851
 21
15.442139286808519
 31
0.0
  0
LINE
  5
6927B
  8
0
 62
     0
 10
11.41445979425885
 20
17.517139286808519
 30
0.0
 11
11.364459794258851
 21
17.567139286808519
 31
0.0
  0
LINE
  5
6927C
  8
0
 62
     0
 10
14.20898306522661
 20
14.72261601584076
 30
0.0
 11
14.118983065226621
 21
14.81261601584076
 31
0.0
  0
LINE
  5
6927D
  8
0
 62
     0
 10
13.19895979425894
 20
15.688445112984271
 30
0.0
 11
13.148959794258939
 21
15.73844511298427
 31
0.0
  0
LINE
  5
6927E
  8
0
 62
     0
 10
13.137288891402459
 20
15.75011601584076
 30
0.0
 11
13.08728889140245
 21
15.800116015840761
 31
0.0
  0
LINE
  5
6927F
  8
0
 62
     0
 10
13.289788891402459
 20
15.59761601584076
 30
0.0
 11
13.19978889140245
 21
15.68761601584076
 31
0.0
  0
LINE
  5
69280
  8
0
 62
     0
 10
11.509788891402451
 20
17.377616015840751
 30
0.0
 11
11.48445979425872
 21
17.40294511298449
 31
0.0
  0
LINE
  5
69281
  8
0
 62
     0
 10
13.579459794258851
 20
15.30794511298437
 30
0.0
 11
13.489459794258851
 21
15.39794511298437
 31
0.0
  0
LINE
  5
69282
  8
0
 62
     0
 10
11.43978889140247
 20
17.44761601584074
 30
0.0
 11
11.364459794258851
 21
17.52294511298436
 31
0.0
  0
LINE
  5
69283
  8
0
 62
     0
 10
14.164788891402459
 20
14.72261601584076
 30
0.0
 11
14.074788891402459
 21
14.81261601584076
 31
0.0
  0
LINE
  5
69284
  8
0
 62
     0
 10
13.2455947175783
 20
15.59761601584076
 30
0.0
 11
13.148959794258939
 21
15.694250939160099
 31
0.0
  0
LINE
  5
69285
  8
0
 62
     0
 10
13.093094717578291
 20
15.75011601584076
 30
0.0
 11
13.08695979425894
 21
15.756250939160109
 31
0.0
  0
LINE
  5
69286
  8
0
 62
     0
 10
13.579459794258851
 20
15.2637509391602
 30
0.0
 11
13.489459794258851
 21
15.3537509391602
 31
0.0
  0
LINE
  5
69287
  8
0
 62
     0
 10
11.41445979425891
 20
17.42875093916015
 30
0.0
 11
11.364459794258851
 21
17.478750939160211
 31
0.0
  0
LINE
  5
69288
  8
0
 62
     0
 10
14.1205947175783
 20
14.72261601584076
 30
0.0
 11
14.0305947175783
 21
14.81261601584076
 31
0.0
  0
LINE
  5
69289
  8
0
 62
     0
 10
13.20140054375414
 20
15.59761601584076
 30
0.0
 11
13.11140054375414
 21
15.68761601584076
 31
0.0
  0
LINE
  5
6928A
  8
0
 62
     0
 10
11.53445979425873
 20
17.26455676533616
 30
0.0
 11
11.51340054375415
 21
17.285616015840741
 31
0.0
  0
LINE
  5
6928B
  8
0
 62
     0
 10
13.579459794258851
 20
15.21955676533605
 30
0.0
 11
13.489459794258851
 21
15.30955676533604
 31
0.0
  0
LINE
  5
6928C
  8
0
 62
     0
 10
11.414459794258899
 20
17.38455676533599
 30
0.0
 11
11.364459794258851
 21
17.434556765336051
 31
0.0
  0
LINE
  5
6928D
  8
0
 62
     0
 10
14.076400543754129
 20
14.72261601584076
 30
0.0
 11
13.98640054375414
 21
14.81261601584076
 31
0.0
  0
LINE
  5
6928E
  8
0
 62
     0
 10
13.15720636992998
 20
15.59761601584076
 30
0.0
 11
13.067206369929981
 21
15.68761601584076
 31
0.0
  0
LINE
  5
6928F
  8
0
 62
     0
 10
11.5344597942587
 20
17.220362591512028
 30
0.0
 11
11.48445979425874
 21
17.27036259151199
 31
0.0
  0
LINE
  5
69290
  8
0
 62
     0
 10
13.579459794258851
 20
15.17536259151189
 30
0.0
 11
13.489459794258851
 21
15.26536259151189
 31
0.0
  0
LINE
  5
69291
  8
0
 62
     0
 10
11.414459794258899
 20
17.34036259151183
 30
0.0
 11
11.364459794258851
 21
17.390362591511892
 31
0.0
  0
LINE
  5
69292
  8
0
 62
     0
 10
14.03220636992998
 20
14.72261601584076
 30
0.0
 11
13.942206369929981
 21
14.81261601584076
 31
0.0
  0
LINE
  5
69293
  8
0
 62
     0
 10
13.113012196105821
 20
15.59761601584076
 30
0.0
 11
13.023012196105819
 21
15.68761601584076
 31
0.0
  0
LINE
  5
69294
  8
0
 62
     0
 10
11.525012196105839
 20
17.18561601584074
 30
0.0
 11
11.47501219610584
 21
17.235616015840741
 31
0.0
  0
LINE
  5
69295
  8
0
 62
     0
 10
13.579459794258851
 20
15.13116841768773
 30
0.0
 11
13.489459794258851
 21
15.22116841768773
 31
0.0
  0
LINE
  5
69296
  8
0
 62
     0
 10
11.414459794258899
 20
17.296168417687671
 30
0.0
 11
11.364459794258851
 21
17.346168417687721
 31
0.0
  0
LINE
  5
69297
  8
0
 62
     0
 10
13.988012196105821
 20
14.72261601584076
 30
0.0
 11
13.898012196105819
 21
14.81261601584076
 31
0.0
  0
LINE
  5
69298
  8
0
 62
     0
 10
13.068818022281659
 20
15.59761601584076
 30
0.0
 11
12.97881802228166
 21
15.68761601584076
 31
0.0
  0
LINE
  5
69299
  8
0
 62
     0
 10
11.48081802228168
 20
17.18561601584074
 30
0.0
 11
11.430818022281681
 21
17.235616015840741
 31
0.0
  0
LINE
  5
6929A
  8
0
 62
     0
 10
13.579459794258851
 20
15.086974243863571
 30
0.0
 11
13.489459794258851
 21
15.176974243863571
 31
0.0
  0
LINE
  5
6929B
  8
0
 62
     0
 10
11.414459794258899
 20
17.251974243863511
 30
0.0
 11
11.36445979425884
 21
17.301974243863569
 31
0.0
  0
LINE
  5
6929C
  8
0
 62
     0
 10
13.943818022281659
 20
14.72261601584076
 30
0.0
 11
13.85381802228166
 21
14.81261601584076
 31
0.0
  0
LINE
  5
6929D
  8
0
 62
     0
 10
13.0246238484575
 20
15.59761601584076
 30
0.0
 11
12.9346238484575
 21
15.68761601584076
 31
0.0
  0
LINE
  5
6929E
  8
0
 62
     0
 10
13.579459794258851
 20
15.042780070039401
 30
0.0
 11
13.489459794258851
 21
15.132780070039409
 31
0.0
  0
LINE
  5
6929F
  8
0
 62
     0
 10
11.454459794258851
 20
17.167780070039409
 30
0.0
 11
11.364459794258851
 21
17.257780070039409
 31
0.0
  0
LINE
  5
692A0
  8
0
 62
     0
 10
13.8996238484575
 20
14.72261601584076
 30
0.0
 11
13.8096238484575
 21
14.81261601584076
 31
0.0
  0
LINE
  5
692A1
  8
0
 62
     0
 10
12.98042967463334
 20
15.59761601584076
 30
0.0
 11
12.89042967463334
 21
15.68761601584076
 31
0.0
  0
LINE
  5
692A2
  8
0
 62
     0
 10
13.579459794258851
 20
14.99858589621525
 30
0.0
 11
13.489459794258851
 21
15.08858589621525
 31
0.0
  0
LINE
  5
692A3
  8
0
 62
     0
 10
11.454459794258851
 20
17.12358589621525
 30
0.0
 11
11.364459794258851
 21
17.21358589621525
 31
0.0
  0
LINE
  5
692A4
  8
0
 62
     0
 10
13.85542967463334
 20
14.72261601584076
 30
0.0
 11
13.76542967463334
 21
14.81261601584076
 31
0.0
  0
LINE
  5
692A5
  8
0
 62
     0
 10
12.936235500809181
 20
15.59761601584076
 30
0.0
 11
12.846235500809181
 21
15.68761601584076
 31
0.0
  0
LINE
  5
692A6
  8
0
 62
     0
 10
13.579459794258851
 20
14.95439172239109
 30
0.0
 11
13.489459794258851
 21
15.04439172239109
 31
0.0
  0
LINE
  5
692A7
  8
0
 62
     0
 10
12.766959794258741
 20
15.76689172239119
 30
0.0
 11
12.73373550080918
 21
15.800116015840761
 31
0.0
  0
LINE
  5
692A8
  8
0
 62
     0
 10
13.641959794258909
 20
14.89189172239103
 30
0.0
 11
13.60873550080918
 21
14.925116015840761
 31
0.0
  0
LINE
  5
692A9
  8
0
 62
     0
 10
11.454459794258851
 20
17.07939172239109
 30
0.0
 11
11.364459794258851
 21
17.16939172239109
 31
0.0
  0
LINE
  5
692AA
  8
0
 62
     0
 10
13.811235500809181
 20
14.72261601584076
 30
0.0
 11
13.721235500809181
 21
14.81261601584076
 31
0.0
  0
LINE
  5
692AB
  8
0
 62
     0
 10
12.892041326985019
 20
15.59761601584076
 30
0.0
 11
12.80204132698502
 21
15.68761601584076
 31
0.0
  0
LINE
  5
692AC
  8
0
 62
     0
 10
12.73954132698502
 20
15.75011601584076
 30
0.0
 11
12.689541326985021
 21
15.80011601584075
 31
0.0
  0
LINE
  5
692AD
  8
0
 62
     0
 10
13.61454132698502
 20
14.87511601584076
 30
0.0
 11
13.489459794258851
 21
15.000197548566931
 31
0.0
  0
LINE
  5
692AE
  8
0
 62
     0
 10
11.454459794258851
 20
17.035197548566931
 30
0.0
 11
11.364459794258851
 21
17.125197548566931
 31
0.0
  0
LINE
  5
692AF
  8
0
 62
     0
 10
13.767041326985019
 20
14.72261601584076
 30
0.0
 11
13.67704132698502
 21
14.81261601584076
 31
0.0
  0
LINE
  5
692B0
  8
0
 62
     0
 10
12.84784715316086
 20
15.59761601584076
 30
0.0
 11
12.75784715316086
 21
15.68761601584076
 31
0.0
  0
LINE
  5
692B1
  8
0
 62
     0
 10
12.704959794258761
 20
15.740503374742859
 30
0.0
 11
12.654959794258749
 21
15.790503374742871
 31
0.0
  0
LINE
  5
692B2
  8
0
 62
     0
 10
13.579459794258851
 20
14.866003374742769
 30
0.0
 11
13.489459794258851
 21
14.956003374742769
 31
0.0
  0
LINE
  5
692B3
  8
0
 62
     0
 10
11.454459794258851
 20
16.991003374742771
 30
0.0
 11
11.364459794258851
 21
17.081003374742771
 31
0.0
  0
LINE
  5
692B4
  8
0
 62
     0
 10
13.72284715316086
 20
14.72261601584076
 30
0.0
 11
13.63284715316086
 21
14.81261601584076
 31
0.0
  0
LINE
  5
692B5
  8
0
 62
     0
 10
12.8036529793367
 20
15.59761601584076
 30
0.0
 11
12.7136529793367
 21
15.68761601584076
 31
0.0
  0
LINE
  5
692B6
  8
0
 62
     0
 10
12.704959794258761
 20
15.69630920091871
 30
0.0
 11
12.654959794258749
 21
15.746309200918709
 31
0.0
  0
LINE
  5
692B7
  8
0
 62
     0
 10
13.579459794258851
 20
14.82180920091861
 30
0.0
 11
13.489459794258851
 21
14.91180920091861
 31
0.0
  0
LINE
  5
692B8
  8
0
 62
     0
 10
11.454459794258851
 20
16.946809200918612
 30
0.0
 11
11.364459794258851
 21
17.036809200918611
 31
0.0
  0
LINE
  5
692B9
  8
0
 62
     0
 10
13.6786529793367
 20
14.72261601584076
 30
0.0
 11
13.5886529793367
 21
14.81261601584076
 31
0.0
  0
LINE
  5
692BA
  8
0
 62
     0
 10
12.759458805512541
 20
15.59761601584076
 30
0.0
 11
12.654959794258749
 21
15.70211502709455
 31
0.0
  0
LINE
  5
692BB
  8
0
 62
     0
 10
11.454459794258851
 20
16.902615027094448
 30
0.0
 11
11.364459794258851
 21
16.992615027094448
 31
0.0
  0
LINE
  5
692BC
  8
0
 62
     0
 10
13.63445880551253
 20
14.72261601584076
 30
0.0
 11
13.489459794258851
 21
14.86761502709445
 31
0.0
  0
LINE
  5
692BD
  8
0
 62
     0
 10
12.715264631688379
 20
15.59761601584076
 30
0.0
 11
12.625264631688379
 21
15.68761601584076
 31
0.0
  0
LINE
  5
692BE
  8
0
 62
     0
 10
11.454459794258851
 20
16.858420853270289
 30
0.0
 11
11.364459794258851
 21
16.948420853270289
 31
0.0
  0
LINE
  5
692BF
  8
0
 62
     0
 10
13.590264631688379
 20
14.72261601584076
 30
0.0
 11
13.489459794258851
 21
14.82342085327029
 31
0.0
  0
LINE
  5
692C0
  8
0
 62
     0
 10
12.67107045786422
 20
15.59761601584076
 30
0.0
 11
12.58107045786422
 21
15.68761601584076
 31
0.0
  0
LINE
  5
692C1
  8
0
 62
     0
 10
11.454459794258851
 20
16.814226679446119
 30
0.0
 11
11.364459794258851
 21
16.904226679446129
 31
0.0
  0
LINE
  5
692C2
  8
0
 62
     0
 10
13.54607045786422
 20
14.72261601584076
 30
0.0
 11
13.489459794258851
 21
14.779226679446131
 31
0.0
  0
LINE
  5
692C3
  8
0
 62
     0
 10
12.62687628404006
 20
15.59761601584076
 30
0.0
 11
12.536876284040069
 21
15.68761601584076
 31
0.0
  0
LINE
  5
692C4
  8
0
 62
     0
 10
11.454459794258851
 20
16.77003250562197
 30
0.0
 11
11.364459794258851
 21
16.86003250562198
 31
0.0
  0
LINE
  5
692C5
  8
0
 62
     0
 10
13.501876284040071
 20
14.72261601584076
 30
0.0
 11
13.47395979425885
 21
14.750532505621971
 31
0.0
  0
LINE
  5
692C6
  8
0
 62
     0
 10
11.454459794258851
 20
16.72583833179781
 30
0.0
 11
11.364459794258851
 21
16.815838331797821
 31
0.0
  0
LINE
  5
692C7
  8
0
 62
     0
 10
12.582682110215909
 20
15.59761601584076
 30
0.0
 11
12.49268211021591
 21
15.68761601584076
 31
0.0
  0
LINE
  5
692C8
  8
0
 62
     0
 10
11.454459794258851
 20
16.681644157973661
 30
0.0
 11
11.364459794258851
 21
16.77164415797365
 31
0.0
  0
LINE
  5
692C9
  8
0
 62
     0
 10
12.53848793639175
 20
15.59761601584076
 30
0.0
 11
12.44848793639175
 21
15.687616015840749
 31
0.0
  0
LINE
  5
692CA
  8
0
 62
     0
 10
11.454459794258851
 20
16.637449984149502
 30
0.0
 11
11.364459794258851
 21
16.727449984149501
 31
0.0
  0
LINE
  5
692CB
  8
0
 62
     0
 10
12.49429376256759
 20
15.59761601584076
 30
0.0
 11
12.40429376256759
 21
15.68761601584076
 31
0.0
  0
LINE
  5
692CC
  8
0
 62
     0
 10
11.454459794258851
 20
16.593255810325338
 30
0.0
 11
11.364459794258851
 21
16.683255810325338
 31
0.0
  0
LINE
  5
692CD
  8
0
 62
     0
 10
12.450099588743431
 20
15.59761601584076
 30
0.0
 11
12.360099588743431
 21
15.68761601584076
 31
0.0
  0
LINE
  5
692CE
  8
0
 62
     0
 10
11.454459794258851
 20
16.549061636501179
 30
0.0
 11
11.364459794258851
 21
16.639061636501179
 31
0.0
  0
LINE
  5
692CF
  8
0
 62
     0
 10
12.405905414919269
 20
15.59761601584076
 30
0.0
 11
12.315905414919261
 21
15.68761601584076
 31
0.0
  0
LINE
  5
692D0
  8
0
 62
     0
 10
11.454459794258851
 20
16.504867462677019
 30
0.0
 11
11.364459794258851
 21
16.594867462677019
 31
0.0
  0
LINE
  5
692D1
  8
0
 62
     0
 10
12.364459794258851
 20
15.594867462677019
 30
0.0
 11
12.27445979425884
 21
15.684867462677021
 31
0.0
  0
LINE
  5
692D2
  8
0
 62
     0
 10
11.454459794258851
 20
16.46067328885286
 30
0.0
 11
11.364459794258851
 21
16.55067328885286
 31
0.0
  0
LINE
  5
692D3
  8
0
 62
     0
 10
12.364459794258851
 20
15.55067328885286
 30
0.0
 11
12.27445979425884
 21
15.640673288852851
 31
0.0
  0
LINE
  5
692D4
  8
0
 62
     0
 10
11.454459794258851
 20
16.4164791150287
 30
0.0
 11
11.364459794258851
 21
16.5064791150287
 31
0.0
  0
LINE
  5
692D5
  8
0
 62
     0
 10
12.364459794258851
 20
15.5064791150287
 30
0.0
 11
12.27445979425884
 21
15.5964791150287
 31
0.0
  0
LINE
  5
692D6
  8
0
 62
     0
 10
11.454459794258851
 20
16.372284941204541
 30
0.0
 11
11.364459794258851
 21
16.46228494120453
 31
0.0
  0
LINE
  5
692D7
  8
0
 62
     0
 10
12.364459794258851
 20
15.46228494120454
 30
0.0
 11
12.27445979425884
 21
15.55228494120454
 31
0.0
  0
LINE
  5
692D8
  8
0
 62
     0
 10
11.454459794258851
 20
16.328090767380381
 30
0.0
 11
11.364459794258851
 21
16.418090767380381
 31
0.0
  0
LINE
  5
692D9
  8
0
 62
     0
 10
12.364459794258851
 20
15.418090767380381
 30
0.0
 11
12.27445979425884
 21
15.508090767380381
 31
0.0
  0
LINE
  5
692DA
  8
0
 62
     0
 10
11.454459794258851
 20
16.283896593556221
 30
0.0
 11
11.364459794258851
 21
16.373896593556221
 31
0.0
  0
LINE
  5
692DB
  8
0
 62
     0
 10
12.364459794258851
 20
15.37389659355622
 30
0.0
 11
12.27445979425884
 21
15.463896593556219
 31
0.0
  0
LINE
  5
692DC
  8
0
 62
     0
 10
11.454459794258851
 20
16.239702419732051
 30
0.0
 11
11.364459794258851
 21
16.329702419732062
 31
0.0
  0
LINE
  5
692DD
  8
0
 62
     0
 10
12.364459794258851
 20
15.32970241973206
 30
0.0
 11
12.27445979425884
 21
15.41970241973206
 31
0.0
  0
LINE
  5
692DE
  8
0
 62
     0
 10
11.454459794258851
 20
16.195508245907899
 30
0.0
 11
11.364459794258851
 21
16.285508245907899
 31
0.0
  0
LINE
  5
692DF
  8
0
 62
     0
 10
12.364459794258851
 20
15.2855082459079
 30
0.0
 11
12.27445979425884
 21
15.3755082459079
 31
0.0
  0
LINE
  5
692E0
  8
0
 62
     0
 10
11.454459794258851
 20
16.15131407208375
 30
0.0
 11
11.364459794258851
 21
16.24131407208375
 31
0.0
  0
LINE
  5
692E1
  8
0
 62
     0
 10
12.364459794258851
 20
15.24131407208375
 30
0.0
 11
12.27445979425884
 21
15.33131407208375
 31
0.0
  0
LINE
  5
692E2
  8
0
 62
     0
 10
11.454459794258851
 20
16.10711989825959
 30
0.0
 11
11.364459794258851
 21
16.19711989825959
 31
0.0
  0
LINE
  5
692E3
  8
0
 62
     0
 10
12.364459794258851
 20
15.19711989825959
 30
0.0
 11
12.27445979425884
 21
15.28711989825959
 31
0.0
  0
LINE
  5
692E4
  8
0
 62
     0
 10
11.454459794258851
 20
16.062925724435431
 30
0.0
 11
11.364459794258851
 21
16.152925724435431
 31
0.0
  0
LINE
  5
692E5
  8
0
 62
     0
 10
12.364459794258851
 20
15.152925724435431
 30
0.0
 11
12.27445979425884
 21
15.24292572443543
 31
0.0
  0
LINE
  5
692E6
  8
0
 62
     0
 10
11.45445979425884
 20
16.018731550611271
 30
0.0
 11
11.364459794258851
 21
16.108731550611271
 31
0.0
  0
LINE
  5
692E7
  8
0
 62
     0
 10
12.364459794258851
 20
15.10873155061126
 30
0.0
 11
12.27445979425884
 21
15.198731550611271
 31
0.0
  0
LINE
  5
692E8
  8
0
 62
     0
 10
11.454459794258851
 20
15.97453737678711
 30
0.0
 11
11.364459794258851
 21
16.064537376787111
 31
0.0
  0
LINE
  5
692E9
  8
0
 62
     0
 10
12.364459794258851
 20
15.06453737678711
 30
0.0
 11
12.27445979425884
 21
15.154537376787109
 31
0.0
  0
LINE
  5
692EA
  8
0
 62
     0
 10
11.45445979425884
 20
15.93034320296295
 30
0.0
 11
11.364459794258851
 21
16.020343202962948
 31
0.0
  0
LINE
  5
692EB
  8
0
 62
     0
 10
12.364459794258851
 20
15.02034320296295
 30
0.0
 11
12.27445979425884
 21
15.11034320296295
 31
0.0
  0
LINE
  5
692EC
  8
0
 62
     0
 10
11.45445979425884
 20
15.886149029138791
 30
0.0
 11
11.364459794258851
 21
15.97614902913879
 31
0.0
  0
LINE
  5
692ED
  8
0
 62
     0
 10
12.364459794258851
 20
14.97614902913879
 30
0.0
 11
12.27445979425884
 21
15.06614902913879
 31
0.0
  0
LINE
  5
692EE
  8
0
 62
     0
 10
11.454459794258851
 20
15.841954855314629
 30
0.0
 11
11.364459794258851
 21
15.931954855314631
 31
0.0
  0
LINE
  5
692EF
  8
0
 62
     0
 10
12.364459794258851
 20
14.931954855314631
 30
0.0
 11
12.27445979425884
 21
15.021954855314631
 31
0.0
  0
LINE
  5
692F0
  8
0
 62
     0
 10
11.454459794258851
 20
15.79776068149047
 30
0.0
 11
11.364459794258851
 21
15.887760681490461
 31
0.0
  0
LINE
  5
692F1
  8
0
 62
     0
 10
12.364459794258851
 20
14.887760681490461
 30
0.0
 11
12.27445979425884
 21
14.97776068149046
 31
0.0
  0
LINE
  5
692F2
  8
0
 62
     0
 10
11.454459794258851
 20
15.753566507666321
 30
0.0
 11
11.364459794258851
 21
15.843566507666321
 31
0.0
  0
LINE
  5
692F3
  8
0
 62
     0
 10
12.364459794258851
 20
14.84356650766631
 30
0.0
 11
12.27445979425884
 21
14.93356650766632
 31
0.0
  0
LINE
  5
692F4
  8
0
 62
     0
 10
11.454459794258851
 20
15.70937233384215
 30
0.0
 11
11.364459794258851
 21
15.799372333842159
 31
0.0
  0
LINE
  5
692F5
  8
0
 62
     0
 10
12.364459794258851
 20
14.79937233384215
 30
0.0
 11
12.238716112260249
 21
14.925116015840761
 31
0.0
  0
LINE
  5
692F6
  8
0
 62
     0
 10
12.24452193843609
 20
14.87511601584076
 30
0.0
 11
12.211959794258769
 21
14.907678160018079
 31
0.0
  0
LINE
  5
692F7
  8
0
 62
     0
 10
11.454459794258851
 20
15.665178160018
 30
0.0
 11
11.364459794258851
 21
15.755178160018
 31
0.0
  0
LINE
  5
692F8
  8
0
 62
     0
 10
12.37995979425885
 20
14.73967816001799
 30
0.0
 11
12.27445979425884
 21
14.845178160017991
 31
0.0
  0
LINE
  5
692F9
  8
0
 62
     0
 10
11.454459794258851
 20
15.62098398619384
 30
0.0
 11
11.364459794258851
 21
15.71098398619384
 31
0.0
  0
LINE
  5
692FA
  8
0
 62
     0
 10
12.352827764611931
 20
14.72261601584076
 30
0.0
 11
12.262827764611931
 21
14.81261601584076
 31
0.0
  0
LINE
  5
692FB
  8
0
 62
     0
 10
11.454459794258851
 20
15.576789812369681
 30
0.0
 11
11.364459794258851
 21
15.66678981236968
 31
0.0
  0
LINE
  5
692FC
  8
0
 62
     0
 10
12.30863359078776
 20
14.72261601584076
 30
0.0
 11
12.218633590787769
 21
14.81261601584076
 31
0.0
  0
LINE
  5
692FD
  8
0
 62
     0
 10
11.454459794258851
 20
15.532595638545519
 30
0.0
 11
11.364459794258851
 21
15.622595638545519
 31
0.0
  0
LINE
  5
692FE
  8
0
 62
     0
 10
12.26443941696361
 20
14.72261601584076
 30
0.0
 11
12.17443941696361
 21
14.81261601584076
 31
0.0
  0
LINE
  5
692FF
  8
0
 62
     0
 10
11.45445979425884
 20
15.48840146472136
 30
0.0
 11
11.364459794258851
 21
15.57840146472136
 31
0.0
  0
LINE
  5
69300
  8
0
 62
     0
 10
12.22024524313945
 20
14.72261601584076
 30
0.0
 11
12.13024524313945
 21
14.81261601584076
 31
0.0
  0
LINE
  5
69301
  8
0
 62
     0
 10
11.45445979425884
 20
15.4442072908972
 30
0.0
 11
11.364459794258851
 21
15.5342072908972
 31
0.0
  0
LINE
  5
69302
  8
0
 62
     0
 10
12.176051069315291
 20
14.72261601584076
 30
0.0
 11
12.086051069315291
 21
14.81261601584076
 31
0.0
  0
LINE
  5
69303
  8
0
 62
     0
 10
11.454459794258851
 20
15.400013117073041
 30
0.0
 11
11.364459794258851
 21
15.49001311707304
 31
0.0
  0
LINE
  5
69304
  8
0
 62
     0
 10
12.131856895491129
 20
14.72261601584076
 30
0.0
 11
12.04185689549112
 21
14.81261601584076
 31
0.0
  0
LINE
  5
69305
  8
0
 62
     0
 10
11.454459794258851
 20
15.355818943248879
 30
0.0
 11
11.364459794258851
 21
15.445818943248881
 31
0.0
  0
LINE
  5
69306
  8
0
 62
     0
 10
12.08766272166697
 20
14.72261601584076
 30
0.0
 11
11.99766272166697
 21
14.81261601584076
 31
0.0
  0
LINE
  5
69307
  8
0
 62
     0
 10
11.454459794258851
 20
15.31162476942472
 30
0.0
 11
11.364459794258851
 21
15.401624769424719
 31
0.0
  0
LINE
  5
69308
  8
0
 62
     0
 10
12.04346854784281
 20
14.72261601584076
 30
0.0
 11
11.95346854784281
 21
14.81261601584076
 31
0.0
  0
LINE
  5
69309
  8
0
 62
     0
 10
11.454459794258851
 20
15.26743059560056
 30
0.0
 11
11.364459794258851
 21
15.35743059560056
 31
0.0
  0
LINE
  5
6930A
  8
0
 62
     0
 10
11.99927437401865
 20
14.72261601584076
 30
0.0
 11
11.909274374018651
 21
14.81261601584076
 31
0.0
  0
LINE
  5
6930B
  8
0
 62
     0
 10
11.454459794258851
 20
15.2232364217764
 30
0.0
 11
11.364459794258851
 21
15.3132364217764
 31
0.0
  0
LINE
  5
6930C
  8
0
 62
     0
 10
11.955080200194489
 20
14.72261601584076
 30
0.0
 11
11.865080200194489
 21
14.81261601584076
 31
0.0
  0
LINE
  5
6930D
  8
0
 62
     0
 10
11.454459794258851
 20
15.179042247952241
 30
0.0
 11
11.364459794258851
 21
15.269042247952241
 31
0.0
  0
LINE
  5
6930E
  8
0
 62
     0
 10
11.91088602637033
 20
14.72261601584076
 30
0.0
 11
11.82088602637033
 21
14.81261601584076
 31
0.0
  0
LINE
  5
6930F
  8
0
 62
     0
 10
11.454459794258851
 20
15.13484807412809
 30
0.0
 11
11.36445979425884
 21
15.22484807412809
 31
0.0
  0
LINE
  5
69310
  8
0
 62
     0
 10
11.86669185254617
 20
14.72261601584076
 30
0.0
 11
11.776691852546181
 21
14.81261601584076
 31
0.0
  0
LINE
  5
69311
  8
0
 62
     0
 10
11.454459794258851
 20
15.090653900303931
 30
0.0
 11
11.36445979425884
 21
15.18065390030393
 31
0.0
  0
LINE
  5
69312
  8
0
 62
     0
 10
11.82249767872201
 20
14.72261601584076
 30
0.0
 11
11.732497678722019
 21
14.81261601584076
 31
0.0
  0
LINE
  5
69313
  8
0
 62
     0
 10
11.45445979425884
 20
15.046459726479769
 30
0.0
 11
11.36445979425884
 21
15.136459726479769
 31
0.0
  0
LINE
  5
69314
  8
0
 62
     0
 10
11.77830350489786
 20
14.72261601584076
 30
0.0
 11
11.68830350489786
 21
14.81261601584076
 31
0.0
  0
LINE
  5
69315
  8
0
 62
     0
 10
11.45445979425884
 20
15.00226555265561
 30
0.0
 11
11.364459794258851
 21
15.09226555265561
 31
0.0
  0
LINE
  5
69316
  8
0
 62
     0
 10
11.734109331073681
 20
14.72261601584076
 30
0.0
 11
11.6441093310737
 21
14.81261601584076
 31
0.0
  0
LINE
  5
69317
  8
0
 62
     0
 10
11.51695979425892
 20
14.89557137883137
 30
0.0
 11
11.48741515724954
 21
14.925116015840761
 31
0.0
  0
LINE
  5
69318
  8
0
 62
     0
 10
11.454459794258851
 20
14.95807137883145
 30
0.0
 11
11.364459794258851
 21
15.04807137883145
 31
0.0
  0
LINE
  5
69319
  8
0
 62
     0
 10
11.689915157249541
 20
14.72261601584076
 30
0.0
 11
11.599915157249541
 21
14.81261601584076
 31
0.0
  0
LINE
  5
6931A
  8
0
 62
     0
 10
11.493220983425379
 20
14.87511601584076
 30
0.0
 11
11.364459794258851
 21
15.00387720500729
 31
0.0
  0
LINE
  5
6931B
  8
0
 62
     0
 10
11.645720983425379
 20
14.72261601584076
 30
0.0
 11
11.555720983425379
 21
14.81261601584076
 31
0.0
  0
LINE
  5
6931C
  8
0
 62
     0
 10
11.4544597942589
 20
14.869683031183079
 30
0.0
 11
11.364459794258851
 21
14.959683031183131
 31
0.0
  0
LINE
  5
6931D
  8
0
 62
     0
 10
11.60152680960122
 20
14.72261601584076
 30
0.0
 11
11.51152680960122
 21
14.81261601584076
 31
0.0
  0
LINE
  5
6931E
  8
0
 62
     0
 10
11.45445979425886
 20
14.825488857358961
 30
0.0
 11
11.364459794258851
 21
14.915488857358961
 31
0.0
  0
LINE
  5
6931F
  8
0
 62
     0
 10
11.55733263577706
 20
14.72261601584076
 30
0.0
 11
11.46733263577706
 21
14.81261601584076
 31
0.0
  0
LINE
  5
69320
  8
0
 62
     0
 10
11.5131384619529
 20
14.72261601584076
 30
0.0
 11
11.364459794258851
 21
14.87129468353481
 31
0.0
  0
LINE
  5
69321
  8
0
 62
     0
 10
11.468944288128739
 20
14.72261601584076
 30
0.0
 11
11.364459794258851
 21
14.82710050971065
 31
0.0
  0
LINE
  5
69322
  8
0
 62
     0
 10
11.42475011430458
 20
14.72261601584076
 30
0.0
 11
11.36445979425884
 21
14.782906335886491
 31
0.0
  0
LINE
  5
69323
  8
0
 62
     0
 10
11.38055594048042
 20
14.72261601584076
 30
0.0
 11
11.36445979425884
 21
14.73871216206234
 31
0.0
  0
ENDBLK
  5
69325
  8
0
  0
ENDSEC
  0
SECTION
  2
ENTITIES
  0
INSERT
  5
30ECF
  8
HATCH
  6
CONTINUOUS
  2
*X103
 10
0.0
 20
0.0
 30
0.0
1001
ACAD
1000
HATCH
1002
{
1070
    19
1000
ANSI31
1040
0.5
1040
0.0
1000
ASC_BOUNDS
1070
     1
1070
     1
1070
     2
1005
30EAC
1005
30EAD
1000
ASC_SEEDPOINT
1011
12.92648442561482
1021
0.0
1031
0.0
1021
17.639553602122518
1031
0.0
1000
R14_HATCH_DATA
1000
30ECF
1011
1.0
1021
0.0
1031
0.0
1021
0.0
1031
0.0
1011
0.0
1021
0.0
1031
0.0
1021
1.0
1031
0.0
1011
0.0
1021
0.0
1031
0.0
1021
0.0
1031
1.0
1040
0.0
1010
0.0
1020
0.0
1030
1.0
1000
ANSI31
1070
     0
1070
     1
1071
        1
1071
        7
1070
     0
1070
     1
1071
       10
1040
14.426959794258909
1040
17.610116015840742
1040
14.426959794258909
1040
17.672616015840759
1040
14.3715175079183
1040
17.672616015840791
1040
12.958209794258909
1040
17.672616015840742
1040
12.958209794258909
1040
19.735116015840742
1040
12.89570979425879
1040
19.735116015840742
1040
12.895709794258909
1040
17.672616015840742
1040
11.426959794258909
1040
17.672616015840742
1040
11.426959794258909
1040
17.610116015840742
1040
11.534459794258821
1040
17.610116015840742
1071
        2
1005
30EAD
1005
30EAC
1070
     0
1070
     1
1040
0.0
1040
0.5
1070
     0
1070
     1
1040
0.7853981633974483
1040
0.0
1040
0.9124928765504288
1040
-0.0441941738241592
1040
0.0441941738241592
1070
     0
1040
0.006812640422442
1071
        1
1040
12.92648442561482
1040
17.639553602122518
1040
0.0
1002
}
  0
INSERT
  5
30F28
  8
HATCH
  6
CONTINUOUS
  2
*X104
 10
0.0
 20
0.0
 30
0.0
1001
ACAD
1000
HATCH
1002
{
1070
    19
1000
ANSI31
1040
0.25
1040
1.570796326794895
1000
ASC_BOUNDS
1070
     1
1070
     1
1070
     1
1005
30EAD
1000
ASC_SEEDPOINT
1011
13.44726568956909
1021
0.0
1031
0.0
1021
15.63096139312306
1031
0.0
1000
R14_HATCH_DATA
1000
30F28
1011
1.0
1021
0.0
1031
0.0
1021
0.0
1031
0.0
1011
0.0
1021
0.0
1031
0.0
1021
1.0
1031
0.0
1011
0.0
1021
0.0
1031
0.0
1021
0.0
1031
1.0
1040
0.0
1010
0.0
1020
0.0
1030
1.0
1000
ANSI31
1070
     0
1070
     1
1071
        1
1071
        7
1070
     1
1070
     1
1071
       88
1040
13.489459794258851
1040
15.59761601584076
1040
0.0
1040
13.489459794258851
1040
14.772616015840759
1040
0.0
1040
13.47395979425885
1040
14.772616015840759
1040
0.0
1040
13.47395979425885
1040
14.72261601584076
1040
0.0
1040
14.489459794258851
1040
14.72261601584076
1040
0.0
1040
14.489459794258851
1040
17.722616015840771
1040
0.0
1040
14.43945979425885
1040
17.722616015840732
1040
0.0
1040
14.369017507918301
1040
17.681946142859701
1040
0.7673269879788628
1040
14.3715175079183
1040
17.672616015840791
1040
0.0
1040
14.43945979425885
1040
17.672616015840742
1040
0.0
1040
14.43945979425885
1040
17.610116015840742
1040
0.0
1040
14.31945979425887
1040
17.610116015840742
1040
0.0
1040
14.319459794258931
1040
17.560116015840741
1040
0.0
1040
14.43945979425885
1040
17.560116015840741
1040
0.0
1040
14.43945979425885
1040
17.497616015840741
1040
0.0
1040
14.33945979425903
1040
17.497616015840741
1040
0.0
1040
14.319459794259011
1040
17.477616015840731
1040
0.0
1040
14.31945979425897
1040
17.377616015840779
1040
0.0
1040
14.369459794258979
1040
17.37761601584074
1040
0.0
1040
14.369459794258979
1040
17.44761601584074
1040
0.0
1040
14.43945979425879
1040
17.44761601584074
1040
0.0
1040
14.43945979425879
1040
17.235616015840741
1040
0.0
1040
14.36945979425894
1040
17.235616015840741
1040
0.0
1040
14.36945979425894
1040
17.285616015840741
1040
0.0
1040
14.31945979425895
1040
17.285616015840741
1040
0.0
1040
14.319459794259011
1040
17.18561601584074
1040
0.0
1040
14.399459794258849
1040
17.18561601584074
1040
0.0
1040
14.399459794258849
1040
14.925116015840761
1040
0.0
1040
14.33695979425875
1040
14.925116015840761
1040
0.0
1040
14.336959794258791
1040
14.87511601584076
1040
0.0
1040
14.399459794258791
1040
14.87511601584076
1040
0.0
1040
14.399459794258849
1040
14.81261601584076
1040
0.0
1040
13.579459794258851
1040
14.81261601584076
1040
0.0
1040
13.579459794258851
1040
14.87511601584076
1040
0.0
1040
13.64195979425889
1040
14.87511601584076
1040
0.0
1040
13.64195979425895
1040
14.925116015840761
1040
0.0
1040
13.579459794258851
1040
14.925116015840761
1040
0.0
1040
13.579459794258851
1040
15.68761601584076
1040
0.0
1040
13.19895979425894
1040
15.68761601584076
1040
0.0
1040
13.19895979425894
1040
15.80011601584075
1040
0.0
1040
13.08695979425894
1040
15.800116015840761
1040
0.0
1040
13.08695979425894
1040
15.75011601584076
1040
0.0
1040
13.148959794258939
1040
15.75011601584076
1040
0.0
1040
13.148959794258939
1040
15.68761601584076
1040
0.0
1040
12.704959794258761
1040
15.68761601584076
1040
0.0
1040
12.704959794258761
1040
15.75011601584076
1040
0.0
1040
12.766959794258741
1040
15.75011601584076
1040
0.0
1040
12.766959794258741
1040
15.800116015840761
1040
0.0
1040
12.654959794258749
1040
15.80011601584075
1040
0.0
1040
12.654959794258749
1040
15.68761601584076
1040
0.0
1040
12.27445979425884
1040
15.68761601584076
1040
0.0
1040
12.27445979425884
1040
14.925116015840761
1040
0.0
1040
12.21195979425875
1040
14.925116015840761
1040
0.0
1040
12.211959794258799
1040
14.87511601584076
1040
0.0
1040
12.27445979425884
1040
14.87511601584076
1040
0.0
1040
12.27445979425884
1040
14.81261601584076
1040
0.0
1040
11.454459794258851
1040
14.81261601584076
1040
0.0
1040
11.4544597942589
1040
14.87511601584076
1040
0.0
1040
11.5169597942589
1040
14.87511601584076
1040
0.0
1040
11.51695979425895
1040
14.925116015840761
1040
0.0
1040
11.454459794258851
1040
14.925116015840761
1040
0.0
1040
11.454459794258851
1040
17.18561601584074
1040
0.0
1040
11.534459794258691
1040
17.18561601584074
1040
0.0
1040
11.534459794258741
1040
17.285616015840741
1040
0.0
1040
11.484459794258751
1040
17.285616015840741
1040
0.0
1040
11.484459794258751
1040
17.235616015840741
1040
0.0
1040
11.414459794258899
1040
17.235616015840741
1040
0.0
1040
11.41445979425891
1040
17.44761601584074
1040
0.0
1040
11.48445979425872
1040
17.44761601584074
1040
0.0
1040
11.48445979425872
1040
17.37761601584074
1040
0.0
1040
11.534459794258719
1040
17.377616015840779
1040
0.0
1040
11.5344597942587
1040
17.477616015840731
1040
0.0
1040
11.51445979425867
1040
17.497616015840741
1040
0.0
1040
11.41445979425885
1040
17.497616015840741
1040
0.0
1040
11.41445979425885
1040
17.560116015840741
1040
0.0
1040
11.53445979425876
1040
17.560116015840741
1040
0.0
1040
11.534459794258821
1040
17.610116015840742
1040
0.0
1040
11.41445979425885
1040
17.610116015840742
1040
0.0
1040
11.41445979425885
1040
17.672616015840742
1040
0.0
1040
11.4824020805994
1040
17.672616015840791
1040
0.7673269879788628
1040
11.484902080599401
1040
17.681946142859701
1040
0.0
1040
11.41445979425885
1040
17.722616015840739
1040
0.0
1040
11.364459794258851
1040
17.722616015840771
1040
0.0
1040
11.364459794258851
1040
14.72261601584076
1040
0.0
1040
12.37995979425885
1040
14.72261601584076
1040
0.0
1040
12.37995979425885
1040
14.772616015840759
1040
0.0
1040
12.364459794258851
1040
14.772616015840759
1040
0.0
1040
12.364459794258851
1040
15.59761601584076
1040
0.0
1071
        1
1005
30EAD
1070
     0
1070
     1
1040
1.570796326794895
1040
0.25
1070
     0
1070
     1
1040
2.3561944901923431
1040
0.0
1040
0.9124928765504288
1040
-0.0220970869120796
1040
-0.0220970869120796
1070
     0
1040
0.003347617070255
1071
        1
1040
13.44726568956909
1040
15.63096139312306
1040
0.0
1002
}
  0
DIMENSION
  5
30F29
  8
DIM
  2
*D4
 10
13.47395979425885
 20
14.189681564158761
 30
0.0
 11
12.94242185288457
 21
13.783752766423531
 31
0.0
 70
   128
 13
12.37995979425885
 23
14.72261601584076
 33
0.0
 14
13.47395979425885
 24
14.72261601584076
 34
0.0
1001
ACAD
1000
DSTYLE
1002
{
1070
   287
1070
     5
1070
   279
1070
     2
1070
   271
1070
     3
1002
}
  0
DIMENSION
  5
30F68
  8
DIM
  2
*D5
 10
14.474148108171571
 20
13.037630262739899
 30
0.0
 11
12.927352024325989
 21
13.037630262739899
 31
0.0
 13
11.38055594048042
 23
14.72261601584076
 33
0.0
 14
14.474148108171571
 24
14.72261601584076
 34
0.0
1001
ACAD
1000
DSTYLE
1002
{
1070
   271
1070
     3
1002
}
  0
DIMENSION
  5
30F94
  8
DIM
  2
*D7
 10
8.454157659376726
 20
19.735116015840742
 30
0.0
 11
8.4541576593767225
 21
17.228866015840751
 31
0.0
 13
11.364459794258851
 23
14.72261601584076
 33
0.0
 14
12.89570979425879
 24
19.735116015840742
 34
0.0
 50
90.0
1001
ACAD
1000
DSTYLE
1002
{
1070
   271
1070
     0
1002
}
  0
DIMENSION
  5
30FAC
  8
DIM
  2
*D9
 10
9.5290648989309688
 20
17.72261601584076
 30
0.0
 11
9.5290648989309634
 21
16.22261601584076
 31
0.0
 13
11.364459794258851
 23
14.72261601584076
 33
0.0
 14
11.364459794258851
 24
17.72261601584076
 34
0.0
 50
90.0
  0
DIMENSION
  5
30FBA
  8
DIM
  2
*D11
 10
10.48109469819055
 20
15.59761601584076
 30
0.0
 11
10.435646172329101
 21
14.18311562429342
 31
0.0
 70
   128
 13
11.364459794258851
 23
14.72261601584076
 33
0.0
 14
12.364459794258851
 24
15.59761601584076
 34
0.0
 50
90.0
  0
LINE
  5
6946F
  8
0
 10
11.426959794258909
 20
17.610116015840742
 30
0.0
 11
11.426959794258909
 21
17.672616015840742
 31
0.0
  0
LINE
  5
69470
  8
0
 10
12.958209794258909
 20
17.672616015840742
 30
0.0
 11
14.43945979425885
 21
17.672616015840742
 31
0.0
  0
LINE
  5
69471
  8
0
 10
12.895709794258909
 20
17.672616015840742
 30
0.0
 11
12.89570979425879
 21
19.735116015840742
 31
0.0
  0
LINE
  5
69472
  8
0
 10
12.89570979425879
 20
19.735116015840742
 30
0.0
 11
12.958209794258909
 21
19.735116015840742
 31
0.0
  0
LINE
  5
69473
  8
0
 10
12.958209794258909
 20
17.672616015840742
 30
0.0
 11
12.958209794258909
 21
19.735116015840742
 31
0.0
  0
LINE
  5
69474
  8
0
 10
14.426959794258909
 20
17.610116015840742
 30
0.0
 11
14.426959794258909
 21
17.672616015840742
 31
0.0
  0
INSERT
  5
69475
  8
DEFPOINTS
  2
ALLEGRO_TABLET_TOOLS
 10
295.17974395707142
 20
18.17150132100614
 30
0.0
1001
ALLEGRO
1002
{
1000
SCALE
1000
1
1002
}
1002
{
1000
SHEET-SZ
1000
(11 . 8.5)
1002
}
1002
{
1000
DEF-SCALEMENU
1000
$scale2
1002
}
1002
{
1000
DEF-SCALE
1000
8
1002
}
1002
{
1000
DEF-SHEETSZ
1000
1
1002
}
1002
{
1000
INIT-FILE
1000
C:\UTIL\ACAD12\ALLEGRO5.5/ALLEGM.INI
1002
}
1002
{
1000
HEIGHT
1000
8.5
1002
}
1002
{
1000
WIDTH
1000
11
1002
}
1002
{
1000
TOP
1000
0.50
1002
}
1002
{
1000
BOTTOM
1000
0.50
1002
}
1002
{
1000
RIGHT
1000
0.50
1002
}
1002
{
1000
LEFT
1000
0.50
1002
}
  0
POLYLINE
  5
694D8
  8
0
 66
     1
 10
0.0
 20
0.0
 30
0.0
1001
ACAD
1000
ASC_BOUNDS
1002
{
1070
    19
1005
30F28
1005
30ECF
1002
}
  0
VERTEX
  5
69505
  8
0
 10
14.319459794258879
 20
17.610116015840742
 30
0.0
  0
VERTEX
  5
69506
  8
0
 10
14.319459794258931
 20
17.560116015840741
 30
0.0
  0
VERTEX
  5
69507
  8
0
 10
14.43945979425885
 20
17.560116015840741
 30
0.0
  0
VERTEX
  5
69508
  8
0
 10
14.43945979425885
 20
17.497616015840741
 30
0.0
  0
VERTEX
  5
69509
  8
0
 10
14.33945979425903
 20
17.497616015840741
 30
0.0
  0
VERTEX
  5
6950A
  8
0
 10
14.319459794259
 20
17.477616015840731
 30
0.0
  0
VERTEX
  5
6950B
  8
0
 10
14.319459794258981
 20
17.377616015840779
 30
0.0
  0
VERTEX
  5
6950C
  8
0
 10
14.369459794258979
 20
17.37761601584074
 30
0.0
  0
VERTEX
  5
6950D
  8
0
 10
14.369459794258979
 20
17.44761601584074
 30
0.0
  0
VERTEX
  5
6950E
  8
0
 10
14.43945979425879
 20
17.44761601584074
 30
0.0
  0
VERTEX
  5
6950F
  8
0
 10
14.43945979425879
 20
17.235616015840741
 30
0.0
  0
VERTEX
  5
69510
  8
0
 10
14.36945979425894
 20
17.235616015840741
 30
0.0
  0
VERTEX
  5
69511
  8
0
 10
14.36945979425894
 20
17.285616015840741
 30
0.0
  0
VERTEX
  5
69512
  8
0
 10
14.31945979425895
 20
17.285616015840741
 30
0.0
  0
VERTEX
  5
69513
  8
0
 10
14.319459794259011
 20
17.18561601584074
 30
0.0
  0
VERTEX
  5
69514
  8
0
 10
14.399459794258849
 20
17.18561601584074
 30
0.0
  0
VERTEX
  5
69515
  8
0
 10
14.399459794258849
 20
14.925116015840761
 30
0.0
  0
VERTEX
  5
69516
  8
0
 10
14.33695979425875
 20
14.925116015840761
 30
0.0
  0
VERTEX
  5
69517
  8
0
 10
14.336959794258791
 20
14.87511601584076
 30
0.0
  0
VERTEX
  5
69518
  8
0
 10
14.399459794258791
 20
14.87511601584076
 30
0.0
  0
VERTEX
  5
69519
  8
0
 10
14.399459794258849
 20
14.81261601584076
 30
0.0
  0
VERTEX
  5
6951A
  8
0
 10
13.579459794258851
 20
14.81261601584076
 30
0.0
  0
VERTEX
  5
6951B
  8
0
 10
13.579459794258851
 20
14.87511601584076
 30
0.0
  0
VERTEX
  5
6951C
  8
0
 10
13.64195979425889
 20
14.87511601584076
 30
0.0
  0
VERTEX
  5
6951D
  8
0
 10
13.64195979425895
 20
14.925116015840761
 30
0.0
  0
VERTEX
  5
6951E
  8
0
 10
13.579459794258851
 20
14.925116015840761
 30
0.0
  0
VERTEX
  5
6951F
  8
0
 10
13.579459794258851
 20
15.68761601584076
 30
0.0
  0
VERTEX
  5
69520
  8
0
 10
13.19895979425894
 20
15.68761601584076
 30
0.0
  0
VERTEX
  5
69521
  8
0
 10
13.19895979425894
 20
15.800116015840761
 30
0.0
  0
VERTEX
  5
69522
  8
0
 10
13.08695979425894
 20
15.800116015840761
 30
0.0
  0
VERTEX
  5
69523
  8
0
 10
13.08695979425894
 20
15.75011601584076
 30
0.0
  0
VERTEX
  5
69524
  8
0
 10
13.148959794258939
 20
15.75011601584076
 30
0.0
  0
VERTEX
  5
69525
  8
0
 10
13.148959794258939
 20
15.68761601584076
 30
0.0
  0
VERTEX
  5
69526
  8
0
 10
12.704959794258761
 20
15.68761601584076
 30
0.0
  0
VERTEX
  5
69527
  8
0
 10
12.704959794258761
 20
15.75011601584076
 30
0.0
  0
VERTEX
  5
69528
  8
0
 10
12.766959794258741
 20
15.75011601584076
 30
0.0
  0
VERTEX
  5
69529
  8
0
 10
12.766959794258741
 20
15.800116015840761
 30
0.0
  0
VERTEX
  5
6952A
  8
0
 10
12.654959794258749
 20
15.800116015840761
 30
0.0
  0
VERTEX
  5
6952B
  8
0
 10
12.654959794258749
 20
15.68761601584076
 30
0.0
  0
VERTEX
  5
6952C
  8
0
 10
12.27445979425884
 20
15.68761601584076
 30
0.0
  0
VERTEX
  5
6952D
  8
0
 10
12.27445979425884
 20
14.925116015840761
 30
0.0
  0
VERTEX
  5
6952E
  8
0
 10
12.21195979425875
 20
14.925116015840761
 30
0.0
  0
VERTEX
  5
6952F
  8
0
 10
12.211959794258799
 20
14.87511601584076
 30
0.0
  0
VERTEX
  5
69530
  8
0
 10
12.27445979425884
 20
14.87511601584076
 30
0.0
  0
VERTEX
  5
69531
  8
0
 10
12.27445979425884
 20
14.81261601584076
 30
0.0
  0
VERTEX
  5
69532
  8
0
 10
11.454459794258851
 20
14.81261601584076
 30
0.0
  0
VERTEX
  5
69533
  8
0
 10
11.4544597942589
 20
14.87511601584076
 30
0.0
  0
VERTEX
  5
69534
  8
0
 10
11.5169597942589
 20
14.87511601584076
 30
0.0
  0
VERTEX
  5
69535
  8
0
 10
11.51695979425895
 20
14.925116015840761
 30
0.0
  0
VERTEX
  5
69536
  8
0
 10
11.454459794258851
 20
14.925116015840761
 30
0.0
  0
VERTEX
  5
69537
  8
0
 10
11.454459794258851
 20
17.18561601584074
 30
0.0
  0
VERTEX
  5
69538
  8
0
 10
11.534459794258691
 20
17.18561601584074
 30
0.0
  0
VERTEX
  5
69539
  8
0
 10
11.534459794258749
 20
17.285616015840741
 30
0.0
  0
VERTEX
  5
6953A
  8
0
 10
11.484459794258751
 20
17.285616015840741
 30
0.0
  0
VERTEX
  5
6953B
  8
0
 10
11.484459794258751
 20
17.235616015840741
 30
0.0
  0
VERTEX
  5
6953C
  8
0
 10
11.41445979425891
 20
17.235616015840741
 30
0.0
  0
VERTEX
  5
6953D
  8
0
 10
11.41445979425891
 20
17.44761601584074
 30
0.0
  0
VERTEX
  5
6953E
  8
0
 10
11.48445979425872
 20
17.44761601584074
 30
0.0
  0
VERTEX
  5
6953F
  8
0
 10
11.48445979425872
 20
17.37761601584074
 30
0.0
  0
VERTEX
  5
69540
  8
0
 10
11.534459794258719
 20
17.377616015840779
 30
0.0
  0
VERTEX
  5
69541
  8
0
 10
11.5344597942587
 20
17.477616015840731
 30
0.0
  0
VERTEX
  5
69542
  8
0
 10
11.514459794258659
 20
17.497616015840741
 30
0.0
  0
VERTEX
  5
69543
  8
0
 10
11.41445979425885
 20
17.497616015840741
 30
0.0
  0
VERTEX
  5
69544
  8
0
 10
11.41445979425885
 20
17.560116015840741
 30
0.0
  0
VERTEX
  5
69545
  8
0
 10
11.53445979425876
 20
17.560116015840741
 30
0.0
  0
VERTEX
  5
69546
  8
0
 10
11.534459794258821
 20
17.610116015840742
 30
0.0
  0
SEQEND
  5
69547
  8
0
  0
POLYLINE
  5
694D9
  8
0
 66
     1
 10
0.0
 20
0.0
 30
0.0
1001
ACAD
1000
ASC_BOUNDS
1002
{
1070
    19
1005
30F28
1005
30ECF
1002
}
  0
VERTEX
  5
69548
  8
0
 10
12.895709794258909
 20
17.672616015840742
 30
0.0
  0
VERTEX
  5
69549
  8
0
 10
11.41445979425885
 20
17.672616015840742
 30
0.0
  0
VERTEX
  5
6954A
  8
0
 10
11.41445979425885
 20
17.610116015840742
 30
0.0
  0
VERTEX
  5
6954B
  8
0
 10
14.43945979425885
 20
17.610116015840742
 30
0.0
  0
SEQEND
  5
6954C
  8
0
  0
POLYLINE
  5
694DC
  8
0
 66
     1
 10
0.0
 20
0.0
 30
0.0
1001
ACAD
1000
ASC_BOUNDS
1002
{
1070
    19
1005
30F28
1005
30ECF
1002
}
  0
VERTEX
  5
6954D
  8
0
 10
11.4824020805994
 20
17.672616015840791
 30
0.0
 42
0.7673269879790734
  0
VERTEX
  5
6954E
  8
0
 10
11.484902080599401
 20
17.681946142859701
 30
0.0
  0
VERTEX
  5
6954F
  8
0
 10
11.41445979425885
 20
17.722616015840732
 30
0.0
  0
VERTEX
  5
69550
  8
0
 10
11.364459794258851
 20
17.72261601584076
 30
0.0
  0
VERTEX
  5
69551
  8
0
 10
11.364459794258851
 20
14.72261601584076
 30
0.0
  0
VERTEX
  5
69552
  8
0
 10
12.37995979425885
 20
14.72261601584076
 30
0.0
  0
VERTEX
  5
69553
  8
0
 10
12.37995979425885
 20
14.772616015840759
 30
0.0
  0
VERTEX
  5
69554
  8
0
 10
12.364459794258851
 20
14.772616015840759
 30
0.0
  0
VERTEX
  5
69555
  8
0
 10
12.364459794258851
 20
15.59761601584076
 30
0.0
  0
VERTEX
  5
69556
  8
0
 10
13.489459794258851
 20
15.59761601584076
 30
0.0
  0
VERTEX
  5
69557
  8
0
 10
13.489459794258851
 20
14.772616015840759
 30
0.0
  0
VERTEX
  5
69558
  8
0
 10
13.47395979425885
 20
14.772616015840759
 30
0.0
  0
VERTEX
  5
69559
  8
0
 10
13.47395979425885
 20
14.72261601584076
 30
0.0
  0
VERTEX
  5
6955A
  8
0
 10
14.489459794258851
 20
14.72261601584076
 30
0.0
  0
VERTEX
  5
6955B
  8
0
 10
14.489459794258851
 20
17.72261601584076
 30
0.0
  0
VERTEX
  5
6955C
  8
0
 10
14.43945979425885
 20
17.722616015840732
 30
0.0
  0
VERTEX
  5
6955D
  8
0
 10
14.369017507918301
 20
17.681946142859701
 30
0.0
 42
0.7673269879790734
  0
VERTEX
  5
6955E
  8
0
 10
14.3715175079183
 20
17.672616015840791
 30
0.0
  0
SEQEND
  5
6955F
  8
0
  0
POLYLINE
  5
694ED
  8
0
 66
     1
 10
0.0
 20
0.0
 30
0.0
1001
ACAD
1000
ASC_BOUNDS
1002
{
1070
    19
1005
30F28
1005
30ECF
1002
}
  0
VERTEX
  5
69560
  8
0
 10
14.43945979425885
 20
17.672616015840742
 30
0.0
  0
VERTEX
  5
69561
  8
0
 10
14.43945979425885
 20
17.610116015840742
 30
0.0
  0
SEQEND
  5
69562
  8
0
  0
VIEWPORT
  5
5D
 67
     1
  8
0
 10
5.1028366720533187
 20
3.8825525951487041
 30
0.0
 40
15.277097025214029
 41
7.8362521211686058
 68
     1
 69
     1
1001
ACAD
1000
MVIEW
1002
{
1070
    16
1010
0.0
1020
0.0
1030
0.0
1010
0.0
1020
0.0
1030
1.0
1040
0.0
1040
7.8362521211686058
1040
5.1028366720533187
1040
3.8825525951487041
1040
50.0
1040
0.0
1040
0.0
1070
     0
1070
   100
1070
     1
1070
     1
1070
     0
1070
     0
1070
     0
1070
     0
1040
0.0
1040
0.0
1040
0.0
1040
0.5
1040
0.5
1040
0.5
1040
0.5
1070
     0
1002
{
1002
}
1002
}
  0
ENDSEC
  0
EOF
