  0
SECTION
  2
HEADER
  9
$ACADVER
  1
AC1009
  9
$INSBASE
 10
1.2351028486011071
 20
11.247746401293711
 30
0.0
  9
$EXTMIN
 10
5.9670008103953709
 20
7.6873336114351929
 30
0.0
  9
$EXTMAX
 10
17.344277721906341
 20
16.6131649123896
 30
0.0
  9
$LIMMIN
 10
0.0
 20
0.0
  9
$LIMMAX
 10
12.0
 20
9.0
  9
$ORTHOMODE
 70
     0
  9
$REGENMODE
 70
     1
  9
$FILLMODE
 70
     1
  9
$QTEXTMODE
 70
     0
  9
$MIRRTEXT
 70
     0
  9
$DRAGMODE
 70
     2
  9
$LTSCALE
 40
1.0
  9
$OSMODE
 70
   123
  9
$ATTMODE
 70
     1
  9
$TEXTSIZE
 40
0.25
  9
$TRACEWID
 40
0.05
  9
$TEXTSTYLE
  7
STD
  9
$CLAYER
  8
0
  9
$CELTYPE
  6
BYLAYER
  9
$CECOLOR
 62
   256
  9
$DIMSCALE
 40
1.0
  9
$DIMASZ
 40
0.18
  9
$DIMEXO
 40
0.0625
  9
$DIMDLI
 40
0.38
  9
$DIMRND
 40
0.0
  9
$DIMDLE
 40
0.0
  9
$DIMEXE
 40
0.18
  9
$DIMTP
 40
0.0
  9
$DIMTM
 40
0.0
  9
$DIMTXT
 40
0.18
  9
$DIMCEN
 40
0.09
  9
$DIMTSZ
 40
0.0
  9
$DIMTOL
 70
     0
  9
$DIMLIM
 70
     0
  9
$DIMTIH
 70
     1
  9
$DIMTOH
 70
     1
  9
$DIMSE1
 70
     0
  9
$DIMSE2
 70
     0
  9
$DIMTAD
 70
     0
  9
$DIMZIN
 70
     0
  9
$DIMBLK
  1

  9
$DIMASO
 70
     1
  9
$DIMSHO
 70
     1
  9
$DIMPOST
  1

  9
$DIMAPOST
  1

  9
$DIMALT
 70
     0
  9
$DIMALTD
 70
     2
  9
$DIMALTF
 40
25.399999999999999
  9
$DIMLFAC
 40
1.0
  9
$DIMTOFL
 70
     0
  9
$DIMTVP
 40
0.0
  9
$DIMTIX
 70
     0
  9
$DIMSOXD
 70
     0
  9
$DIMSAH
 70
     0
  9
$DIMBLK1
  1

  9
$DIMBLK2
  1

  9
$DIMSTYLE
  2
STANDARD
  9
$DIMCLRD
 70
     0
  9
$DIMCLRE
 70
     0
  9
$DIMCLRT
 70
     0
  9
$DIMTFAC
 40
1.0
  9
$DIMGAP
 40
0.09
  9
$LUNITS
 70
     5
  9
$LUPREC
 70
     6
  9
$SKETCHINC
 40
0.1
  9
$FILLETRAD
 40
0.0
  9
$AUNITS
 70
     0
  9
$AUPREC
 70
     0
  9
$MENU
  1
.
  9
$ELEVATION
 40
0.0
  9
$PELEVATION
 40
0.0
  9
$THICKNESS
 40
0.0
  9
$LIMCHECK
 70
     0
  9
$BLIPMODE
 70
     0
  9
$CHAMFERA
 40
0.5
  9
$CHAMFERB
 40
0.5
  9
$SKPOLY
 70
     0
  9
$TDCREATE
 40
2451225.386950695
  9
$TDUPDATE
 40
2454690.631742951
  9
$TDINDWG
 40
0.9395688889
  9
$TDUSRTIMER
 40
0.9395688889
  9
$USRTIMER
 70
     1
  9
$ANGBASE
 50
0.0
  9
$ANGDIR
 70
     0
  9
$PDMODE
 70
     3
  9
$PDSIZE
 40
0.0
  9
$PLINEWID
 40
0.0
  9
$COORDS
 70
     1
  9
$SPLFRAME
 70
     0
  9
$SPLINETYPE
 70
     6
  9
$SPLINESEGS
 70
     8
  9
$ATTDIA
 70
     0
  9
$ATTREQ
 70
     1
  9
$HANDLING
 70
     1
  9
$HANDSEED
  5
68F1B
  9
$SURFTAB1
 70
     6
  9
$SURFTAB2
 70
     6
  9
$SURFTYPE
 70
     6
  9
$SURFU
 70
     6
  9
$SURFV
 70
     6
  9
$UCSNAME
  2

  9
$UCSORG
 10
0.0
 20
0.0
 30
0.0
  9
$UCSXDIR
 10
1.0
 20
0.0
 30
0.0
  9
$UCSYDIR
 10
0.0
 20
1.0
 30
0.0
  9
$PUCSNAME
  2

  9
$PUCSORG
 10
0.0
 20
0.0
 30
0.0
  9
$PUCSXDIR
 10
1.0
 20
0.0
 30
0.0
  9
$PUCSYDIR
 10
0.0
 20
1.0
 30
0.0
  9
$USERI1
 70
     0
  9
$USERI2
 70
     0
  9
$USERI3
 70
     0
  9
$USERI4
 70
     0
  9
$USERI5
 70
     0
  9
$USERR1
 40
0.0
  9
$USERR2
 40
0.0
  9
$USERR3
 40
0.0
  9
$USERR4
 40
0.0
  9
$USERR5
 40
0.0
  9
$WORLDVIEW
 70
     1
  9
$SHADEDGE
 70
     3
  9
$SHADEDIF
 70
    70
  9
$TILEMODE
 70
     1
  9
$MAXACTVP
 70
    48
  9
$PLIMCHECK
 70
     0
  9
$PEXTMIN
 10
-0.0001218952091371
 20
-0.0000080246436092
 30
-0.0000000000000129
  9
$PEXTMAX
 10
10.20579523931576
 20
7.7651132149410174
 30
0.0000000000000023
  9
$PLIMMIN
 10
-0.2079161059762549
 20
-0.2079166691697489
  9
$PLIMMAX
 10
10.79208365372785
 20
8.2920830905343603
  9
$UNITMODE
 70
     0
  9
$VISRETAIN
 70
     1
  9
$PLINEGEN
 70
     0
  9
$PSLTSCALE
 70
     1
  0
ENDSEC
  0
SECTION
  2
TABLES
  0
TABLE
  2
VPORT
 70
     1
  0
VPORT
  2
*ACTIVE
 70
     0
 10
0.0
 20
0.0
 11
1.0
 21
1.0
 12
11.43957345612089
 22
12.18334860700867
 13
0.0
 23
0.0
 14
0.5
 24
0.5
 15
0.5
 25
0.5
 16
0.0
 26
0.0
 36
1.0
 17
0.0
 27
0.0
 37
0.0
 40
9.0753620682660898
 41
1.9495412844036699
 42
50.0
 43
0.0
 44
0.0
 50
0.0
 51
0.0
 71
     0
 72
   100
 73
     1
 74
     1
 75
     0
 76
     0
 77
     0
 78
     0
  0
ENDTAB
  0
TABLE
  2
LTYPE
 70
     1
  0
LTYPE
  2
CONTINUOUS
 70
     0
  3
Solid line
 72
    65
 73
     0
 40
0.0
  0
ENDTAB
  0
TABLE
  2
LAYER
 70
     4
  0
LAYER
  2
0
 70
     0
 62
     7
  6
CONTINUOUS
  0
LAYER
  2
DEFPOINTS
 70
     0
 62
   252
  6
CONTINUOUS
  0
LAYER
  2
DIM
 70
     0
 62
     1
  6
CONTINUOUS
  0
LAYER
  2
HATCH
 70
     0
 62
     2
  6
CONTINUOUS
  0
ENDTAB
  0
TABLE
  2
STYLE
 70
     2
  0
STYLE
  2
STANDARD
 70
     0
 40
0.0
 41
1.0
 50
0.0
 71
     0
 42
0.2
  3
txt
  4

  0
STYLE
  2
STD
 70
     0
 40
0.0
 41
1.0
 50
0.0
 71
     0
 42
0.25
  3
txt
  4

  0
ENDTAB
  0
TABLE
  2
VIEW
 70
     0
  0
ENDTAB
  0
TABLE
  2
UCS
 70
     0
  0
ENDTAB
  0
TABLE
  2
APPID
 70
    22
  0
APPID
  2
ACAD
 70
     0
  0
APPID
  2
RAK
 70
     0
  0
APPID
  2
DCO15
 70
     0
  0
APPID
  2
ABNSLEADERTOOLS
 70
     0
  0
APPID
  2
ACAD_PSEXT
 70
     0
  0
APPID
  2
ACAD_DSTYLE_DIMTEXT_FILL
 70
     0
  0
APPID
  2
ACAECLAYERSTANDARD
 70
     0
  0
APPID
  2
ACDBBLOCKREPETAG
 70
     0
  0
APPID
  2
ACLAYERTOOLS
 70
     0
  0
APPID
  2
ACAD_DSTYLE_DIMJAG
 70
     0
  0
APPID
  2
ACAD_DSTYLE_DIMBREAK
 70
     0
  0
APPID
  2
ACADANNOTATIVE
 70
     0
  0
APPID
  2
ACAD_DSTYLE_DIMTALN
 70
     0
  0
APPID
  2
ACADANNOAV
 70
     0
  0
APPID
  2
ACAD_MLEADERVER
 70
     0
  0
APPID
  2
ACADANNOPO
 70
     0
  0
APPID
  2
ACAD_DSTYLE_DIMRADIAL_EXTENSION
 70
     0
  0
APPID
  2
ACDBDYNAMICBLOCKTRUENAME
 70
     0
  0
APPID
  2
ACDBDYNAMICBLOCKGUID
 70
     0
  0
APPID
  2
ACAUTHENVIRON
 70
     0
  0
APPID
  2
ACDBBLOCKREPBTAG
 70
     0
  0
APPID
  2
ACDBATTR
 70
     0
  0
ENDTAB
  0
TABLE
  2
DIMSTYLE
 70
     4
  0
DIMSTYLE
  2
STANDARD
 70
     0
  3

  4

  5

  6

  7

 40
1.0
 41
0.18
 42
0.0625
 43
0.38
 44
0.18
 45
0.0
 46
0.0
 47
0.0
 48
0.0
140
0.18
141
0.09
142
0.0
143
25.399999999999999
144
1.0
145
0.0
146
1.0
147
0.09
 71
     0
 72
     0
 73
     1
 74
     1
 75
     0
 76
     0
 77
     0
 78
     0
170
     0
171
     2
172
     0
173
     0
174
     0
175
     0
176
     0
177
     0
178
     0
  0
ENDTAB
  0
ENDSEC
  0
SECTION
  2
BLOCKS
  0
BLOCK
  8
0
  2
$MODEL_SPACE
 70
     0
 10
0.0
 20
0.0
 30
0.0
  3
$MODEL_SPACE
  1

  0
ENDBLK
  5
68D62
  8
0
  0
BLOCK
 67
     1
  8
0
  2
$PAPER_SPACE
 70
     0
 10
0.0
 20
0.0
 30
0.0
  3
$PAPER_SPACE
  1

  0
ENDBLK
  5
68D5E
 67
     1
  8
0
  0
BLOCK
  8
0
  2
*D2
 70
     1
 10
0.0
 20
0.0
 30
0.0
  3
*D2
  1

  0
LINE
  5
308AC
  8
DIM
 62
     3
 10
12.54319080524413
 20
9.5765256624730313
 30
0.0
 11
13.11801104897763
 21
9.5765256624730313
 31
0.0
  0
LINE
  5
308AD
  8
DIM
 62
     3
 10
12.536069310736041
 20
10.451525662473029
 30
0.0
 11
13.11801104897763
 21
10.451525662473029
 31
0.0
  0
LINE
  5
308AE
  8
DIM
 62
     2
 10
12.838011048977631
 20
9.8265256624730313
 30
0.0
 11
12.838011048977631
 21
10.201525662473021
 31
0.0
  0
LINE
  5
308AF
  8
DIM
 62
     2
 10
13.088011048977631
 20
11.30677433536674
 30
0.0
 11
12.838011048977631
 21
11.30677433536674
 31
0.0
  0
LINE
  5
308B0
  8
DIM
 62
     2
 10
12.838011048977631
 20
11.30677433536674
 30
0.0
 11
12.838011048977631
 21
10.451525662473029
 31
0.0
  0
INSERT
  5
308B1
  8
0
  2
*U3
 10
0.0
 20
0.0
 30
0.0
  0
SOLID
  5
308B2
  8
DIM
 62
     2
 10
12.796344382310959
 20
9.8265256624730313
 30
0.0
 11
12.8796777156443
 21
9.8265256624730313
 31
0.0
 12
12.838011048977631
 22
9.5765256624730313
 32
0.0
 13
12.838011048977631
 23
9.5765256624730313
 33
0.0
  0
SOLID
  5
308B3
  8
DIM
 62
     2
 10
12.796344382310959
 20
10.201525662473021
 30
0.0
 11
12.8796777156443
 21
10.201525662473021
 31
0.0
 12
12.838011048977631
 22
10.451525662473029
 32
0.0
 13
12.838011048977631
 23
10.451525662473029
 33
0.0
  0
POINT
  5
308B4
  8
DEFPOINTS
 62
     0
 10
12.40319080524413
 20
9.5765256624730313
 30
0.0
  0
POINT
  5
308B5
  8
DEFPOINTS
 62
     0
 10
12.39606931073604
 20
10.451525662473029
 30
0.0
  0
POINT
  5
308B6
  8
DEFPOINTS
 62
     0
 10
12.838011048977631
 20
10.451525662473029
 30
0.0
  0
ENDBLK
  5
30823
  8
0
  0
BLOCK
  8
0
  2
*U3
 70
     1
 10
0.0
 20
0.0
 30
0.0
  3
*U3
  1

  0
TEXT
  5
68CEA
  8
DIM
 10
13.251469439154979
 20
11.18390598611709
 30
0.0
 40
0.25
  1
7/8"
  7
STD
  0
ENDBLK
  5
68CEC
  8
0
  0
BLOCK
  8
0
  2
*D4
 70
     1
 10
0.0
 20
0.0
 30
0.0
  3
*D4
  1

  0
LINE
  5
308B7
  8
DIM
 62
     3
 10
9.210103530357248
 20
9.5765256624726458
 30
0.0
 11
9.7794286843491918
 21
9.5765256624726458
 31
0.0
  0
LINE
  5
308B8
  8
DIM
 62
     3
 10
9.1946035303572486
 20
10.45152566247264
 30
0.0
 11
9.7794286843491918
 21
10.45152566247264
 31
0.0
  0
LINE
  5
308B9
  8
DIM
 62
     2
 10
9.4994286843491942
 20
9.8265256624726458
 30
0.0
 11
9.4994286843491942
 21
10.20152566247264
 31
0.0
  0
LINE
  5
308BA
  8
DIM
 62
     2
 10
9.7494286843491942
 20
11.30677433536675
 30
0.0
 11
9.4994286843491942
 21
11.30677433536675
 31
0.0
  0
LINE
  5
308BB
  8
DIM
 62
     2
 10
9.4994286843491942
 20
11.30677433536675
 30
0.0
 11
9.4994286843491942
 21
10.45152566247264
 31
0.0
  0
INSERT
  5
308BC
  8
0
  2
*U5
 10
0.0
 20
0.0
 30
0.0
  0
SOLID
  5
308BD
  8
DIM
 62
     2
 10
9.4577620176825281
 20
9.8265256624726458
 30
0.0
 11
9.5410953510158585
 21
9.8265256624726458
 31
0.0
 12
9.4994286843491942
 22
9.5765256624726458
 32
0.0
 13
9.4994286843491942
 23
9.5765256624726458
 33
0.0
  0
SOLID
  5
308BE
  8
DIM
 62
     2
 10
9.4577620176825281
 20
10.20152566247264
 30
0.0
 11
9.5410953510158585
 21
10.20152566247264
 31
0.0
 12
9.4994286843491942
 22
10.45152566247264
 32
0.0
 13
9.4994286843491942
 23
10.45152566247264
 33
0.0
  0
POINT
  5
308BF
  8
DEFPOINTS
 62
     0
 10
9.0701035303572475
 20
9.5765256624726458
 30
0.0
  0
POINT
  5
308C0
  8
DEFPOINTS
 62
     0
 10
9.0546035303572481
 20
10.45152566247264
 30
0.0
  0
POINT
  5
308C1
  8
DEFPOINTS
 62
     0
 10
9.4994286843491942
 20
10.45152566247264
 30
0.0
  0
ENDBLK
  5
30848
  8
0
  0
BLOCK
  8
0
  2
*U5
 70
     1
 10
0.0
 20
0.0
 30
0.0
  3
*U5
  1

  0
TEXT
  5
68CEE
  8
DIM
 10
9.9128870745265463
 20
11.18390598611709
 30
0.0
 40
0.25
  1
7/8"
  7
STD
  0
ENDBLK
  5
68CF0
  8
0
  0
BLOCK
  8
0
  2
*D6
 70
     1
 10
0.0
 20
0.0
 30
0.0
  3
*D6
  1

  0
LINE
  5
68CD7
  8
DIM
 62
     3
 10
9.0701035303572475
 20
9.4365256624726435
 30
0.0
 11
9.0701035303572475
 21
8.9244430379606623
 31
0.0
  0
LINE
  5
68CD8
  8
DIM
 62
     3
 10
10.16410353035725
 20
9.4365256624726435
 30
0.0
 11
10.16410353035725
 21
8.9244430379606623
 31
0.0
  0
LINE
  5
68CD9
  8
DIM
 62
     2
 10
9.3201035303572475
 20
9.2044430379606599
 30
0.0
 11
9.9141035303572487
 21
9.2044430379606599
 31
0.0
  0
TEXT
  5
68D29
  8
DIM
 10
9.1169899999999995
 20
8.3031899999999972
 30
0.0
 40
0.25
  1
1 3/32"
  7
STD
  0
SOLID
  5
68CDB
  8
DIM
 62
     2
 10
9.3201035303572475
 20
9.2461097046273277
 30
0.0
 11
9.3201035303572475
 21
9.1627763712939974
 31
0.0
 12
9.0701035303572475
 22
9.2044430379606599
 32
0.0
 13
9.0701035303572475
 23
9.2044430379606599
 33
0.0
  0
SOLID
  5
68CDC
  8
DIM
 62
     2
 10
9.9141035303572487
 20
9.2461097046273277
 30
0.0
 11
9.9141035303572487
 21
9.1627763712939974
 31
0.0
 12
10.16410353035725
 22
9.2044430379606599
 32
0.0
 13
10.16410353035725
 23
9.2044430379606599
 33
0.0
  0
POINT
  5
68CDD
  8
DEFPOINTS
 62
     0
 10
9.0701035303572475
 20
9.5765256624726458
 30
0.0
  0
POINT
  5
68CDE
  8
DEFPOINTS
 62
     0
 10
10.16410353035725
 20
9.5765256624726458
 30
0.0
  0
POINT
  5
68CDF
  8
DEFPOINTS
 62
     0
 10
10.16410353035725
 20
9.2044430379606599
 30
0.0
  0
ENDBLK
  5
30878
  8
0
  0
BLOCK
  8
0
  2
*D7
 70
     1
 10
0.0
 20
0.0
 30
0.0
  3
*D7
  1

  0
LINE
  5
68CE0
  8
DIM
 62
     3
 10
12.40319080524413
 20
9.4365256624730307
 30
0.0
 11
12.40319080524413
 21
8.9257004990452504
 31
0.0
  0
LINE
  5
68CE1
  8
DIM
 62
     3
 10
13.497190805244131
 20
9.4365256624730307
 30
0.0
 11
13.497190805244131
 21
8.9257004990452504
 31
0.0
  0
LINE
  5
68CE2
  8
DIM
 62
     2
 10
12.653190805244121
 20
9.205700499045248
 30
0.0
 11
13.247190805244131
 21
9.205700499045248
 31
0.0
  0
TEXT
  5
68D2A
  8
DIM
 10
12.444800000000001
 20
8.3075399999999995
 30
0.0
 40
0.25
  1
1 3/32"
  7
STD
  0
SOLID
  5
68CE4
  8
DIM
 62
     2
 10
12.653190805244121
 20
9.2473671657119176
 30
0.0
 11
12.653190805244121
 21
9.1640338323785837
 31
0.0
 12
12.40319080524413
 22
9.205700499045248
 32
0.0
 13
12.40319080524413
 23
9.205700499045248
 33
0.0
  0
SOLID
  5
68CE5
  8
DIM
 62
     2
 10
13.247190805244131
 20
9.2473671657119176
 30
0.0
 11
13.247190805244131
 21
9.1640338323785837
 31
0.0
 12
13.497190805244131
 22
9.205700499045248
 32
0.0
 13
13.497190805244131
 23
9.205700499045248
 33
0.0
  0
POINT
  5
68CE6
  8
DEFPOINTS
 62
     0
 10
12.40319080524413
 20
9.5765256624730313
 30
0.0
  0
POINT
  5
68CE7
  8
DEFPOINTS
 62
     0
 10
13.497190805244131
 20
9.5765256624730313
 30
0.0
  0
POINT
  5
68CE8
  8
DEFPOINTS
 62
     0
 10
13.497190805244131
 20
9.205700499045248
 30
0.0
  0
ENDBLK
  5
30899
  8
0
  0
BLOCK
  8
0
  2
*D8
 70
     1
 10
0.0
 20
0.0
 30
0.0
  3
*D8
  1

  0
LINE
  5
308D6
  8
DIM
 62
     3
 10
8.5546035303572481
 20
9.4365256624726435
 30
0.0
 11
8.5546035303572481
 21
7.6873336114351929
 31
0.0
  0
LINE
  5
308D7
  8
DIM
 62
     3
 10
10.67960353035725
 20
9.4365256624726435
 30
0.0
 11
10.67960353035725
 21
7.6873336114351929
 31
0.0
  0
LINE
  5
308D8
  8
DIM
 62
     2
 10
8.8046035303572481
 20
7.9673336114351931
 30
0.0
 11
9.0000298605073148
 21
7.9673336114351931
 31
0.0
  0
LINE
  5
308D9
  8
DIM
 62
     2
 10
10.429603530357239
 20
7.9673336114351931
 30
0.0
 11
10.23417720020718
 21
7.9673336114351931
 31
0.0
  0
SOLID
  5
308DA
  8
DIM
 62
     2
 10
8.8046035303572481
 20
8.0090002781018583
 30
0.0
 11
8.8046035303572481
 21
7.9256669447685262
 31
0.0
 12
8.5546035303572481
 22
7.9673336114351931
 32
0.0
 13
8.5546035303572481
 23
7.9673336114351931
 33
0.0
  0
SOLID
  5
308DB
  8
DIM
 62
     2
 10
10.429603530357239
 20
8.0090002781018583
 30
0.0
 11
10.429603530357239
 21
7.9256669447685262
 31
0.0
 12
10.67960353035725
 22
7.9673336114351931
 32
0.0
 13
10.67960353035725
 23
7.9673336114351931
 33
0.0
  0
INSERT
  5
308DC
  8
0
  2
*U9
 10
0.0
 20
0.0
 30
0.0
  0
POINT
  5
308DD
  8
DEFPOINTS
 62
     0
 10
8.5546035303572481
 20
9.5765256624726458
 30
0.0
  0
POINT
  5
308DE
  8
DEFPOINTS
 62
     0
 10
10.67960353035725
 20
9.5765256624726458
 30
0.0
  0
POINT
  5
308DF
  8
DEFPOINTS
 62
     0
 10
10.67960353035725
 20
7.9673336114351931
 30
0.0
  0
ENDBLK
  5
308E1
  8
0
  0
BLOCK
  8
0
  2
*U9
 70
     1
 10
0.0
 20
0.0
 30
0.0
  3
*U9
  1

  0
TEXT
  5
68CF2
  8
DIM
 10
9.1697979369056792
 20
7.8444652621855342
 30
0.0
 40
0.25
  1
2 1/8"
  7
STD
  0
ENDBLK
  5
68CF4
  8
0
  0
BLOCK
  8
0
  2
*D10
 70
     1
 10
0.0
 20
0.0
 30
0.0
  3
*D10
  1

  0
LINE
  5
308F2
  8
DIM
 62
     3
 10
11.88769080524413
 20
9.4365256624730307
 30
0.0
 11
11.88769080524413
 21
7.6907019334745819
 31
0.0
  0
LINE
  5
308F3
  8
DIM
 62
     3
 10
14.01269080524413
 20
9.4365256624730307
 30
0.0
 11
14.01269080524413
 21
7.6907019334745819
 31
0.0
  0
LINE
  5
308F4
  8
DIM
 62
     2
 10
12.13769080524413
 20
7.9707019334745821
 30
0.0
 11
12.3331171353942
 21
7.9707019334745821
 31
0.0
  0
LINE
  5
308F5
  8
DIM
 62
     2
 10
13.76269080524413
 20
7.9707019334745821
 30
0.0
 11
13.56726447509406
 21
7.9707019334745821
 31
0.0
  0
SOLID
  5
308F6
  8
DIM
 62
     2
 10
12.13769080524413
 20
8.0123686001412491
 30
0.0
 11
12.13769080524413
 21
7.929035266807916
 31
0.0
 12
11.88769080524413
 22
7.9707019334745821
 32
0.0
 13
11.88769080524413
 23
7.9707019334745821
 33
0.0
  0
SOLID
  5
308F7
  8
DIM
 62
     2
 10
13.76269080524413
 20
8.0123686001412491
 30
0.0
 11
13.76269080524413
 21
7.929035266807916
 31
0.0
 12
14.01269080524413
 22
7.9707019334745821
 32
0.0
 13
14.01269080524413
 23
7.9707019334745821
 33
0.0
  0
INSERT
  5
308F8
  8
0
  2
*U11
 10
0.0
 20
0.0
 30
0.0
  0
POINT
  5
308F9
  8
DEFPOINTS
 62
     0
 10
11.88769080524413
 20
9.5765256624730313
 30
0.0
  0
POINT
  5
308FA
  8
DEFPOINTS
 62
     0
 10
14.01269080524413
 20
9.5765256624730313
 30
0.0
  0
POINT
  5
308FB
  8
DEFPOINTS
 62
     0
 10
14.01269080524413
 20
7.9707019334745821
 30
0.0
  0
ENDBLK
  5
308FD
  8
0
  0
BLOCK
  8
0
  2
*U11
 70
     1
 10
0.0
 20
0.0
 30
0.0
  3
*U11
  1

  0
TEXT
  5
68CFA
  8
DIM
 10
12.50288521179256
 20
7.8478335842249241
 30
0.0
 40
0.25
  1
2 1/8"
  7
STD
  0
ENDBLK
  5
68CFC
  8
0
  0
BLOCK
  8
0
  2
*D12
 70
     1
 10
0.0
 20
0.0
 30
0.0
  3
*D12
  1

  0
LINE
  5
30940
  8
DIM
 62
     3
 10
14.152690805244131
 20
9.5765256624730313
 30
0.0
 11
16.74038163277493
 21
9.5765256624730313
 31
0.0
  0
LINE
  5
30941
  8
DIM
 62
     3
 10
13.116129454416139
 20
15.470275662472879
 30
0.0
 11
16.74038163277493
 21
15.470275662472879
 31
0.0
  0
LINE
  5
30942
  8
DIM
 62
     2
 10
16.460381632774919
 20
9.8265256624730313
 30
0.0
 11
16.460381632774919
 21
12.21413736097227
 31
0.0
  0
LINE
  5
30943
  8
DIM
 62
     2
 10
16.460381632774919
 20
15.220275662472879
 30
0.0
 11
16.460381632774919
 21
12.832663963973641
 31
0.0
  0
SOLID
  5
30944
  8
DIM
 62
     2
 10
16.418714966108261
 20
9.8265256624730313
 30
0.0
 11
16.50204829944159
 21
9.8265256624730313
 31
0.0
 12
16.460381632774919
 22
9.5765256624730313
 32
0.0
 13
16.460381632774919
 23
9.5765256624730313
 33
0.0
  0
SOLID
  5
30945
  8
DIM
 62
     2
 10
16.418714966108261
 20
15.220275662472879
 30
0.0
 11
16.50204829944159
 21
15.220275662472879
 31
0.0
 12
16.460381632774919
 22
15.470275662472879
 32
0.0
 13
16.460381632774919
 23
15.470275662472879
 33
0.0
  0
INSERT
  5
30946
  8
0
  2
*U13
 10
0.0
 20
0.0
 30
0.0
  0
POINT
  5
30947
  8
DEFPOINTS
 62
     0
 10
14.01269080524413
 20
9.5765256624730313
 30
0.0
  0
POINT
  5
30948
  8
DEFPOINTS
 62
     0
 10
12.976129454416141
 20
15.470275662472879
 30
0.0
  0
POINT
  5
30949
  8
DEFPOINTS
 62
     0
 10
16.460381632774919
 20
15.470275662472879
 30
0.0
  0
ENDBLK
  5
3090B
  8
0
  0
BLOCK
  8
0
  2
*U13
 70
     1
 10
0.0
 20
0.0
 30
0.0
  3
*U13
  1

  0
TEXT
  5
68D0A
  8
DIM
 10
16.010944388573009
 20
12.4005323132233
 30
0.0
 40
0.25
  1
5 7/8"
  7
STD
  0
ENDBLK
  5
68D0C
  8
0
  0
BLOCK
  8
0
  2
*D14
 70
     1
 10
0.0
 20
0.0
 30
0.0
  3
*D14
  1

  0
LINE
  5
3090E
  8
DIM
 62
     3
 10
14.152690805244131
 20
9.5765256624730313
 30
0.0
 11
15.40060101909963
 21
9.5765256624730313
 31
0.0
  0
LINE
  5
3090F
  8
DIM
 62
     3
 10
14.152690805244131
 20
13.576525662473029
 30
0.0
 11
15.400601019099639
 21
13.576525662473029
 31
0.0
  0
LINE
  5
30910
  8
DIM
 62
     2
 10
15.120601019099629
 20
9.8265256624730313
 30
0.0
 11
15.120601019099629
 21
11.27152566247303
 31
0.0
  0
LINE
  5
30911
  8
DIM
 62
     2
 10
15.12060101909964
 20
13.326525662473021
 30
0.0
 11
15.120601019099629
 21
11.88152566247302
 31
0.0
  0
SOLID
  5
30912
  8
DIM
 62
     2
 10
15.07893435243297
 20
9.8265256624730313
 30
0.0
 11
15.162267685766301
 21
9.8265256624730313
 31
0.0
 12
15.120601019099629
 22
9.5765256624730313
 32
0.0
 13
15.120601019099629
 23
9.5765256624730313
 33
0.0
  0
SOLID
  5
30913
  8
DIM
 62
     2
 10
15.07893435243297
 20
13.326525662473021
 30
0.0
 11
15.162267685766301
 21
13.326525662473021
 31
0.0
 12
15.12060101909964
 22
13.576525662473029
 32
0.0
 13
15.12060101909964
 23
13.576525662473029
 33
0.0
  0
INSERT
  5
30914
  8
0
  2
*U15
 10
0.0
 20
0.0
 30
0.0
  0
POINT
  5
30915
  8
DEFPOINTS
 62
     0
 10
14.01269080524413
 20
9.5765256624730313
 30
0.0
  0
POINT
  5
30916
  8
DEFPOINTS
 62
     0
 10
14.01269080524413
 20
13.576525662473029
 30
0.0
  0
POINT
  5
30917
  8
DEFPOINTS
 62
     0
 10
15.12060101909964
 20
13.576525662473029
 30
0.0
  0
ENDBLK
  5
30919
  8
0
  0
BLOCK
  8
0
  2
*U15
 70
     1
 10
0.0
 20
0.0
 30
0.0
  3
*U15
  1

  0
TEXT
  5
68CFE
  8
DIM
 10
14.967463229195131
 20
11.451525662473021
 30
0.0
 40
0.25
  1
4"
  7
STD
  0
ENDBLK
  5
68D00
  8
0
  0
BLOCK
  8
0
  2
*D16
 70
     1
 10
0.0
 20
0.0
 30
0.0
  3
*D16
  1

  0
LINE
  5
30936
  8
DIM
 62
     3
 10
8.4146035303572457
 20
9.5765256624726458
 30
0.0
 11
6.1314073588264781
 21
9.5765256624726458
 31
0.0
  0
LINE
  5
30937
  8
DIM
 62
     3
 10
9.4530421795291684
 20
14.47020530877319
 30
0.0
 11
6.131407358826479
 21
14.47020530877319
 31
0.0
  0
LINE
  5
30938
  8
DIM
 62
     2
 10
6.4114073588264784
 20
9.8265256624726458
 30
0.0
 11
6.4114073588264793
 21
11.714102184122231
 31
0.0
  0
LINE
  5
30939
  8
DIM
 62
     2
 10
6.4114073588264802
 20
14.22020530877319
 30
0.0
 11
6.4114073588264793
 21
12.3326287871236
 31
0.0
  0
SOLID
  5
3093A
  8
DIM
 62
     2
 10
6.3697406921598114
 20
9.8265256624726458
 30
0.0
 11
6.4530740254931436
 21
9.8265256624726458
 31
0.0
 12
6.4114073588264784
 22
9.5765256624726458
 32
0.0
 13
6.4114073588264784
 23
9.5765256624726458
 33
0.0
  0
SOLID
  5
3093B
  8
DIM
 62
     2
 10
6.3697406921598132
 20
14.22020530877319
 30
0.0
 11
6.4530740254931471
 21
14.22020530877319
 31
0.0
 12
6.4114073588264802
 22
14.47020530877319
 32
0.0
 13
6.4114073588264802
 23
14.47020530877319
 33
0.0
  0
INSERT
  5
3093C
  8
0
  2
*U17
 10
0.0
 20
0.0
 30
0.0
  0
POINT
  5
3093D
  8
DEFPOINTS
 62
     0
 10
8.5546035303572481
 20
9.5765256624726458
 30
0.0
  0
POINT
  5
3093E
  8
DEFPOINTS
 62
     0
 10
9.5930421795291672
 20
14.47020530877319
 30
0.0
  0
POINT
  5
3093F
  8
DEFPOINTS
 62
     0
 10
6.4114073588264802
 20
14.47020530877319
 30
0.0
  0
ENDBLK
  5
30927
  8
0
  0
BLOCK
  8
0
  2
*U17
 70
     1
 10
0.0
 20
0.0
 30
0.0
  3
*U17
  1

  0
TEXT
  5
68D06
  8
DIM
 10
5.9670008103953709
 20
11.900497136373261
 30
0.0
 40
0.25
  1
4 7/8"
  7
STD
  0
ENDBLK
  5
68D08
  8
0
  0
BLOCK
  8
0
  2
*D18
 70
     1
 10
0.0
 20
0.0
 30
0.0
  3
*D18
  1

  0
LINE
  5
3092A
  8
DIM
 62
     3
 10
8.4146035303572457
 20
9.5765256624726458
 30
0.0
 11
7.2099608661523504
 21
9.5765256624726458
 31
0.0
  0
LINE
  5
3092B
  8
DIM
 62
     3
 10
8.4146035303572457
 20
13.57652566247264
 30
0.0
 11
7.2099608661523504
 21
13.57652566247264
 31
0.0
  0
LINE
  5
3092C
  8
DIM
 62
     2
 10
7.489960866152348
 20
9.8265256624726458
 30
0.0
 11
7.4899608661523498
 21
11.271525662472641
 31
0.0
  0
LINE
  5
3092D
  8
DIM
 62
     2
 10
7.4899608661523498
 20
13.32652566247264
 30
0.0
 11
7.4899608661523498
 21
11.88152566247264
 31
0.0
  0
SOLID
  5
3092E
  8
DIM
 62
     2
 10
7.4482941994856819
 20
9.8265256624726458
 30
0.0
 11
7.5316275328190168
 21
9.8265256624726458
 31
0.0
 12
7.489960866152348
 22
9.5765256624726458
 32
0.0
 13
7.489960866152348
 23
9.5765256624726458
 33
0.0
  0
SOLID
  5
3092F
  8
DIM
 62
     2
 10
7.4482941994856819
 20
13.32652566247264
 30
0.0
 11
7.5316275328190168
 21
13.32652566247264
 31
0.0
 12
7.4899608661523498
 22
13.57652566247264
 32
0.0
 13
7.4899608661523498
 23
13.57652566247264
 33
0.0
  0
INSERT
  5
30930
  8
0
  2
*U19
 10
0.0
 20
0.0
 30
0.0
  0
POINT
  5
30931
  8
DEFPOINTS
 62
     0
 10
8.5546035303572481
 20
9.5765256624726458
 30
0.0
  0
POINT
  5
30932
  8
DEFPOINTS
 62
     0
 10
8.5546035303572481
 20
13.57652566247264
 30
0.0
  0
POINT
  5
30933
  8
DEFPOINTS
 62
     0
 10
7.4899608661523498
 20
13.57652566247264
 30
0.0
  0
ENDBLK
  5
30935
  8
0
  0
BLOCK
  8
0
  2
*U19
 70
     1
 10
0.0
 20
0.0
 30
0.0
  3
*U19
  1

  0
TEXT
  5
68D02
  8
DIM
 10
7.336823076247847
 20
11.45152566247264
 30
0.0
 40
0.25
  1
4"
  7
STD
  0
ENDBLK
  5
68D04
  8
0
  0
BLOCK
  8
0
  2
*X82
 70
     1
 10
0.0
 20
0.0
 30
0.0
  3
*X82
  1

  0
LINE
  5
68B04
  8
0
 62
     0
 10
13.995943044888961
 20
9.5765256624730331
 30
0.0
 11
14.01269080524413
 21
9.5932734228282044
 31
0.0
  0
LINE
  5
68B05
  8
0
 62
     0
 10
13.90755469724064
 20
9.5765256624730331
 30
0.0
 11
14.01269080524413
 21
9.6816617704765253
 31
0.0
  0
LINE
  5
68B06
  8
0
 62
     0
 10
13.922690805244111
 20
9.6800501181248286
 30
0.0
 11
14.01269080524413
 21
9.7700501181248391
 31
0.0
  0
LINE
  5
68B07
  8
0
 62
     0
 10
13.81916634959232
 20
9.5765256624730313
 30
0.0
 11
13.90916634959232
 21
9.6665256624730276
 31
0.0
  0
LINE
  5
68B08
  8
0
 62
     0
 10
13.883278001943999
 20
9.7290256624730311
 30
0.0
 11
14.01269080524413
 21
9.8584384657731583
 31
0.0
  0
LINE
  5
68B09
  8
0
 62
     0
 10
13.730778001944
 20
9.5765256624730313
 30
0.0
 11
13.820778001943999
 21
9.6665256624730276
 31
0.0
  0
LINE
  5
68B0A
  8
0
 62
     0
 10
13.92269080524412
 20
9.8568268134214758
 30
0.0
 11
14.01269080524413
 21
9.9468268134214757
 31
0.0
  0
LINE
  5
68B0B
  8
0
 62
     0
 10
13.64238965429568
 20
9.5765256624730313
 30
0.0
 11
13.73238965429568
 21
9.6665256624730311
 31
0.0
  0
LINE
  5
68B0C
  8
0
 62
     0
 10
13.92269080524412
 20
9.9452151610697914
 30
0.0
 11
14.01269080524413
 21
10.03521516106979
 31
0.0
  0
LINE
  5
68B0D
  8
0
 62
     0
 10
13.554001306647359
 20
9.5765256624730331
 30
0.0
 11
13.644001306647359
 21
9.6665256624730311
 31
0.0
  0
LINE
  5
68B0E
  8
0
 62
     0
 10
13.61811295899904
 20
9.7290256624730311
 30
0.0
 11
13.665190805244221
 21
9.7761035087182062
 31
0.0
  0
LINE
  5
68B0F
  8
0
 62
     0
 10
13.92269080524412
 20
10.033603508718111
 30
0.0
 11
14.01269080524413
 21
10.12360350871811
 31
0.0
  0
LINE
  5
68B10
  8
0
 62
     0
 10
13.497190805244131
 20
9.6081035087181146
 30
0.0
 11
13.602690805244119
 21
9.7136035087181121
 31
0.0
  0
LINE
  5
68B11
  8
0
 62
     0
 10
13.92269080524412
 20
10.12199185636643
 30
0.0
 11
14.01269080524413
 21
10.21199185636643
 31
0.0
  0
LINE
  5
68B12
  8
0
 62
     0
 10
13.512690805244119
 20
9.7119918563664296
 30
0.0
 11
13.602690805244119
 21
9.8019918563664294
 31
0.0
  0
LINE
  5
68B13
  8
0
 62
     0
 10
13.92269080524412
 20
10.210380204014751
 30
0.0
 11
14.01269080524413
 21
10.300380204014751
 31
0.0
  0
LINE
  5
68B14
  8
0
 62
     0
 10
13.512690805244119
 20
9.8003802040147487
 30
0.0
 11
13.602690805244119
 21
9.8903802040147486
 31
0.0
  0
LINE
  5
68B15
  8
0
 62
     0
 10
13.92269080524412
 20
10.29876855166307
 30
0.0
 11
14.01269080524413
 21
10.38876855166307
 31
0.0
  0
LINE
  5
68B16
  8
0
 62
     0
 10
13.51269080524413
 20
9.8887685516630697
 30
0.0
 11
13.602690805244119
 21
9.9787685516630642
 31
0.0
  0
LINE
  5
68B17
  8
0
 62
     0
 10
13.92269080524412
 20
10.38715689931138
 30
0.0
 11
14.01269080524413
 21
10.477156899311391
 31
0.0
  0
LINE
  5
68B18
  8
0
 62
     0
 10
13.51269080524413
 20
9.9771568993113888
 30
0.0
 11
13.602690805244119
 21
10.06715689931138
 31
0.0
  0
LINE
  5
68B19
  8
0
 62
     0
 10
13.92269080524412
 20
10.475545246959699
 30
0.0
 11
14.01269080524413
 21
10.565545246959701
 31
0.0
  0
LINE
  5
68B1A
  8
0
 62
     0
 10
13.51269080524413
 20
10.06554524695971
 30
0.0
 11
13.602690805244119
 21
10.155545246959701
 31
0.0
  0
LINE
  5
68B1B
  8
0
 62
     0
 10
13.92269080524412
 20
10.56393359460802
 30
0.0
 11
14.01269080524413
 21
10.65393359460802
 31
0.0
  0
LINE
  5
68B1C
  8
0
 62
     0
 10
13.51269080524413
 20
10.15393359460802
 30
0.0
 11
13.602690805244119
 21
10.24393359460802
 31
0.0
  0
LINE
  5
68B1D
  8
0
 62
     0
 10
13.92269080524412
 20
10.652321942256339
 30
0.0
 11
14.01269080524413
 21
10.742321942256339
 31
0.0
  0
LINE
  5
68B1E
  8
0
 62
     0
 10
13.51269080524413
 20
10.242321942256339
 30
0.0
 11
13.602690805244119
 21
10.332321942256341
 31
0.0
  0
LINE
  5
68B1F
  8
0
 62
     0
 10
13.92269080524412
 20
10.74071028990466
 30
0.0
 11
14.01269080524413
 21
10.83071028990466
 31
0.0
  0
LINE
  5
68B20
  8
0
 62
     0
 10
13.51269080524413
 20
10.33071028990466
 30
0.0
 11
13.602690805244119
 21
10.420710289904649
 31
0.0
  0
LINE
  5
68B21
  8
0
 62
     0
 10
13.92269080524412
 20
10.829098637552979
 30
0.0
 11
14.01269080524413
 21
10.919098637552979
 31
0.0
  0
LINE
  5
68B22
  8
0
 62
     0
 10
13.51269080524413
 20
10.419098637552979
 30
0.0
 11
13.602690805244119
 21
10.509098637552979
 31
0.0
  0
LINE
  5
68B23
  8
0
 62
     0
 10
13.92269080524412
 20
10.9174869852013
 30
0.0
 11
14.01269080524413
 21
11.0074869852013
 31
0.0
  0
LINE
  5
68B24
  8
0
 62
     0
 10
13.456729482515859
 20
10.451525662473029
 30
0.0
 11
13.546729482515859
 21
10.541525662473029
 31
0.0
  0
LINE
  5
68B25
  8
0
 62
     0
 10
13.92269080524412
 20
11.005875332849611
 30
0.0
 11
14.01269080524413
 21
11.09587533284961
 31
0.0
  0
LINE
  5
68B26
  8
0
 62
     0
 10
13.36834113486754
 20
10.451525662473029
 30
0.0
 11
13.45834113486754
 21
10.541525662473029
 31
0.0
  0
LINE
  5
68B27
  8
0
 62
     0
 10
13.92269080524412
 20
11.09426368049793
 30
0.0
 11
14.01269080524413
 21
11.18426368049793
 31
0.0
  0
LINE
  5
68B28
  8
0
 62
     0
 10
13.279952787219219
 20
10.451525662473029
 30
0.0
 11
13.369952787219219
 21
10.541525662473029
 31
0.0
  0
LINE
  5
68B29
  8
0
 62
     0
 10
13.1915644395709
 20
10.451525662473029
 30
0.0
 11
13.2815644395709
 21
10.541525662473029
 31
0.0
  0
LINE
  5
68B2A
  8
0
 62
     0
 10
13.92269080524412
 20
11.182652028146251
 30
0.0
 11
14.01269080524413
 21
11.272652028146251
 31
0.0
  0
LINE
  5
68B2B
  8
0
 62
     0
 10
12.3165644395709
 20
9.5765256624730313
 30
0.0
 11
12.387690805244119
 21
9.6476520281462488
 31
0.0
  0
LINE
  5
68B2C
  8
0
 62
     0
 10
13.10317609192259
 20
10.451525662473029
 30
0.0
 11
13.222190805244219
 21
10.570540375794669
 31
0.0
  0
LINE
  5
68B2D
  8
0
 62
     0
 10
13.92269080524412
 20
11.27104037579457
 30
0.0
 11
14.01269080524413
 21
11.36104037579457
 31
0.0
  0
LINE
  5
68B2E
  8
0
 62
     0
 10
12.22817609192259
 20
9.5765256624730313
 30
0.0
 11
12.387690805244119
 21
9.7360403757945662
 31
0.0
  0
LINE
  5
68B2F
  8
0
 62
     0
 10
13.01478774427426
 20
10.451525662473029
 30
0.0
 11
13.104787744274271
 21
10.541525662473029
 31
0.0
  0
LINE
  5
68B30
  8
0
 62
     0
 10
13.16728774427426
 20
10.604025662473029
 30
0.0
 11
13.21728774427427
 21
10.65402566247303
 31
0.0
  0
LINE
  5
68B31
  8
0
 62
     0
 10
12.292287744274271
 20
9.7290256624730311
 30
0.0
 11
12.387690805244119
 21
9.8244287234428889
 31
0.0
  0
LINE
  5
68B32
  8
0
 62
     0
 10
13.92269080524412
 20
11.359428723442891
 30
0.0
 11
14.01269080524413
 21
11.449428723442891
 31
0.0
  0
LINE
  5
68B33
  8
0
 62
     0
 10
12.139787744274271
 20
9.5765256624730313
 30
0.0
 11
12.22978774427426
 21
9.6665256624730311
 31
0.0
  0
LINE
  5
68B34
  8
0
 62
     0
 10
12.92639939662595
 20
10.451525662473029
 30
0.0
 11
13.01639939662595
 21
10.541525662473029
 31
0.0
  0
LINE
  5
68B35
  8
0
 62
     0
 10
12.29769080524413
 20
9.8228170710912082
 30
0.0
 11
12.387690805244119
 21
9.9128170710912062
 31
0.0
  0
LINE
  5
68B36
  8
0
 62
     0
 10
13.110190805244221
 20
10.635317071091301
 30
0.0
 11
13.12889939662595
 21
10.65402566247303
 31
0.0
  0
LINE
  5
68B37
  8
0
 62
     0
 10
12.23519080524404
 20
9.7603170710911265
 30
0.0
 11
12.25389939662594
 21
9.7790256624730247
 31
0.0
  0
LINE
  5
68B38
  8
0
 62
     0
 10
13.92269080524412
 20
11.447817071091199
 30
0.0
 11
14.01269080524413
 21
11.537817071091199
 31
0.0
  0
LINE
  5
68B39
  8
0
 62
     0
 10
12.05139939662595
 20
9.5765256624730277
 30
0.0
 11
12.14139939662595
 21
9.6665256624730276
 31
0.0
  0
LINE
  5
68B3A
  8
0
 62
     0
 10
12.838011048977631
 20
10.451525662473029
 30
0.0
 11
12.928011048977631
 21
10.541525662473029
 31
0.0
  0
LINE
  5
68B3B
  8
0
 62
     0
 10
12.29769080524413
 20
9.9112054187395273
 30
0.0
 11
12.38769080524413
 21
10.00120541873952
 31
0.0
  0
LINE
  5
68B3C
  8
0
 62
     0
 10
13.92269080524412
 20
11.53620541873952
 30
0.0
 11
14.01269080524413
 21
11.626205418739531
 31
0.0
  0
LINE
  5
68B3D
  8
0
 62
     0
 10
11.963011048977631
 20
9.5765256624730313
 30
0.0
 11
12.053011048977631
 21
9.6665256624730311
 31
0.0
  0
LINE
  5
68B3E
  8
0
 62
     0
 10
12.29769080524413
 20
9.9995937663878482
 30
0.0
 11
12.38769080524413
 21
10.089593766387839
 31
0.0
  0
LINE
  5
68B3F
  8
0
 62
     0
 10
12.74962270132931
 20
10.451525662473029
 30
0.0
 11
12.83962270132931
 21
10.541525662473029
 31
0.0
  0
LINE
  5
68B40
  8
0
 62
     0
 10
12.02712270132931
 20
9.7290256624730311
 30
0.0
 11
12.04019080524419
 21
9.7420937663879101
 31
0.0
  0
LINE
  5
68B41
  8
0
 62
     0
 10
13.92269080524412
 20
11.624593766387839
 30
0.0
 11
14.01269080524413
 21
11.714593766387839
 31
0.0
  0
LINE
  5
68B42
  8
0
 62
     0
 10
11.88769080524413
 20
9.5895937663878499
 30
0.0
 11
11.977690805244141
 21
9.6795937663878568
 31
0.0
  0
LINE
  5
68B43
  8
0
 62
     0
 10
12.661234353680991
 20
10.451525662473029
 30
0.0
 11
12.75123435368099
 21
10.541525662473029
 31
0.0
  0
LINE
  5
68B44
  8
0
 62
     0
 10
12.29769080524413
 20
10.08798211403616
 30
0.0
 11
12.387690805244119
 21
10.17798211403616
 31
0.0
  0
LINE
  5
68B45
  8
0
 62
     0
 10
13.92269080524412
 20
11.71298211403616
 30
0.0
 11
14.01269080524413
 21
11.80298211403616
 31
0.0
  0
LINE
  5
68B46
  8
0
 62
     0
 10
11.88769080524413
 20
9.6779821140361673
 30
0.0
 11
11.988734353680981
 21
9.7790256624730301
 31
0.0
  0
LINE
  5
68B47
  8
0
 62
     0
 10
12.57284600603267
 20
10.451525662473029
 30
0.0
 11
12.66284600603267
 21
10.541525662473029
 31
0.0
  0
LINE
  5
68B48
  8
0
 62
     0
 10
12.67819080524403
 20
10.55687046168439
 30
0.0
 11
12.77534600603267
 21
10.65402566247303
 31
0.0
  0
LINE
  5
68B49
  8
0
 62
     0
 10
12.29769080524413
 20
10.176370461684479
 30
0.0
 11
12.387690805244119
 21
10.266370461684479
 31
0.0
  0
LINE
  5
68B4A
  8
0
 62
     0
 10
13.92269080524412
 20
11.801370461684479
 30
0.0
 11
14.012690805244119
 21
11.891370461684479
 31
0.0
  0
LINE
  5
68B4B
  8
0
 62
     0
 10
11.88769080524413
 20
9.7663704616844864
 30
0.0
 11
11.977690805244119
 21
9.8563704616844792
 31
0.0
  0
LINE
  5
68B4C
  8
0
 62
     0
 10
12.484457658384359
 20
10.451525662473029
 30
0.0
 11
12.574457658384359
 21
10.541525662473029
 31
0.0
  0
LINE
  5
68B4D
  8
0
 62
     0
 10
12.67819080524403
 20
10.645258809332701
 30
0.0
 11
12.68695765838436
 21
10.65402566247303
 31
0.0
  0
LINE
  5
68B4E
  8
0
 62
     0
 10
12.29769080524413
 20
10.2647588093328
 30
0.0
 11
12.387690805244119
 21
10.3547588093328
 31
0.0
  0
LINE
  5
68B4F
  8
0
 62
     0
 10
13.92269080524412
 20
11.8897588093328
 30
0.0
 11
14.01269080524413
 21
11.9797588093328
 31
0.0
  0
LINE
  5
68B50
  8
0
 62
     0
 10
11.88769080524413
 20
9.8547588093328038
 30
0.0
 11
11.977690805244119
 21
9.9447588093328001
 31
0.0
  0
LINE
  5
68B51
  8
0
 62
     0
 10
12.39606931073604
 20
10.451525662473029
 30
0.0
 11
12.48606931073604
 21
10.541525662473029
 31
0.0
  0
LINE
  5
68B52
  8
0
 62
     0
 10
12.29769080524413
 20
10.35314715698112
 30
0.0
 11
12.38769080524413
 21
10.443147156981119
 31
0.0
  0
LINE
  5
68B53
  8
0
 62
     0
 10
13.92269080524412
 20
11.97814715698112
 30
0.0
 11
14.01269080524413
 21
12.068147156981119
 31
0.0
  0
LINE
  5
68B54
  8
0
 62
     0
 10
11.88769080524413
 20
9.9431471569811194
 30
0.0
 11
11.977690805244119
 21
10.033147156981119
 31
0.0
  0
LINE
  5
68B55
  8
0
 62
     0
 10
12.29769080524413
 20
10.44153550462944
 30
0.0
 11
12.397680963087719
 21
10.541525662473029
 31
0.0
  0
LINE
  5
68B56
  8
0
 62
     0
 10
13.92269080524412
 20
12.06653550462944
 30
0.0
 11
14.01269080524413
 21
12.15653550462944
 31
0.0
  0
LINE
  5
68B57
  8
0
 62
     0
 10
11.88769080524413
 20
10.03153550462944
 30
0.0
 11
11.977690805244119
 21
10.12153550462944
 31
0.0
  0
LINE
  5
68B58
  8
0
 62
     0
 10
12.29769080524413
 20
10.52992385227776
 30
0.0
 11
12.3092926154394
 21
10.541525662473029
 31
0.0
  0
LINE
  5
68B59
  8
0
 62
     0
 10
13.92269080524412
 20
12.154923852277751
 30
0.0
 11
14.012690805244119
 21
12.244923852277751
 31
0.0
  0
LINE
  5
68B5A
  8
0
 62
     0
 10
11.88769080524413
 20
10.119923852277759
 30
0.0
 11
11.977690805244119
 21
10.209923852277759
 31
0.0
  0
LINE
  5
68B5B
  8
0
 62
     0
 10
13.92269080524412
 20
12.24331219992607
 30
0.0
 11
14.012690805244119
 21
12.33331219992607
 31
0.0
  0
LINE
  5
68B5C
  8
0
 62
     0
 10
11.88769080524413
 20
10.20831219992608
 30
0.0
 11
11.977690805244119
 21
10.29831219992607
 31
0.0
  0
LINE
  5
68B5D
  8
0
 62
     0
 10
13.92269080524412
 20
12.331700547574391
 30
0.0
 11
14.01269080524413
 21
12.421700547574391
 31
0.0
  0
LINE
  5
68B5E
  8
0
 62
     0
 10
11.88769080524413
 20
10.296700547574391
 30
0.0
 11
11.977690805244119
 21
10.386700547574391
 31
0.0
  0
LINE
  5
68B5F
  8
0
 62
     0
 10
13.92269080524412
 20
12.42008889522271
 30
0.0
 11
14.01269080524413
 21
12.51008889522271
 31
0.0
  0
LINE
  5
68B60
  8
0
 62
     0
 10
11.88769080524413
 20
10.38508889522271
 30
0.0
 11
11.977690805244119
 21
10.47508889522271
 31
0.0
  0
LINE
  5
68B61
  8
0
 62
     0
 10
13.92269080524412
 20
12.508477242871029
 30
0.0
 11
14.01269080524413
 21
12.598477242871031
 31
0.0
  0
LINE
  5
68B62
  8
0
 62
     0
 10
11.88769080524413
 20
10.473477242871031
 30
0.0
 11
11.977690805244119
 21
10.563477242871031
 31
0.0
  0
LINE
  5
68B63
  8
0
 62
     0
 10
13.92269080524412
 20
12.59686559051935
 30
0.0
 11
14.012690805244119
 21
12.686865590519339
 31
0.0
  0
LINE
  5
68B64
  8
0
 62
     0
 10
11.88769080524413
 20
10.56186559051935
 30
0.0
 11
11.977690805244119
 21
10.65186559051935
 31
0.0
  0
LINE
  5
68B65
  8
0
 62
     0
 10
13.92269080524412
 20
12.685253938167669
 30
0.0
 11
14.012690805244119
 21
12.77525393816766
 31
0.0
  0
LINE
  5
68B66
  8
0
 62
     0
 10
11.88769080524413
 20
10.650253938167671
 30
0.0
 11
11.977690805244119
 21
10.74025393816766
 31
0.0
  0
LINE
  5
68B67
  8
0
 62
     0
 10
13.92269080524412
 20
12.773642285815979
 30
0.0
 11
14.012690805244119
 21
12.863642285815979
 31
0.0
  0
LINE
  5
68B68
  8
0
 62
     0
 10
11.88769080524413
 20
10.738642285815979
 30
0.0
 11
11.977690805244119
 21
10.828642285815979
 31
0.0
  0
LINE
  5
68B69
  8
0
 62
     0
 10
11.88769080524413
 20
10.8270306334643
 30
0.0
 11
11.977690805244119
 21
10.9170306334643
 31
0.0
  0
LINE
  5
68B6A
  8
0
 62
     0
 10
13.92269080524412
 20
12.8620306334643
 30
0.0
 11
14.01269080524413
 21
12.9520306334643
 31
0.0
  0
LINE
  5
68B6B
  8
0
 62
     0
 10
10.63718583425247
 20
9.5765256624726458
 30
0.0
 11
10.679603530357239
 21
9.6189433585774182
 31
0.0
  0
LINE
  5
68B6C
  8
0
 62
     0
 10
11.88769080524413
 20
10.915418981112619
 30
0.0
 11
11.977690805244119
 21
11.005418981112619
 31
0.0
  0
LINE
  5
68B6D
  8
0
 62
     0
 10
13.92269080524412
 20
12.95041898111262
 30
0.0
 11
14.012690805244119
 21
13.040418981112619
 31
0.0
  0
LINE
  5
68B6E
  8
0
 62
     0
 10
10.548797486604149
 20
9.576525662472644
 30
0.0
 11
10.679603530357239
 21
9.7073317062257392
 31
0.0
  0
LINE
  5
68B6F
  8
0
 62
     0
 10
11.88769080524413
 20
11.00380732876094
 30
0.0
 11
11.977690805244119
 21
11.09380732876094
 31
0.0
  0
LINE
  5
68B70
  8
0
 62
     0
 10
10.589603530357209
 20
9.7057200538740265
 30
0.0
 11
10.679603530357239
 21
9.7957200538740601
 31
0.0
  0
LINE
  5
68B71
  8
0
 62
     0
 10
13.92269080524412
 20
13.038807328760941
 30
0.0
 11
14.012690805244119
 21
13.12880732876094
 31
0.0
  0
LINE
  5
68B72
  8
0
 62
     0
 10
10.46040913895583
 20
9.576525662472644
 30
0.0
 11
10.55040913895583
 21
9.6665256624726457
 31
0.0
  0
LINE
  5
68B73
  8
0
 62
     0
 10
11.88769080524413
 20
11.09219567640926
 30
0.0
 11
11.977690805244119
 21
11.182195676409259
 31
0.0
  0
LINE
  5
68B74
  8
0
 62
     0
 10
10.589603530357239
 20
9.7941084015223812
 30
0.0
 11
10.679603530357239
 21
9.8841084015223757
 31
0.0
  0
LINE
  5
68B75
  8
0
 62
     0
 10
13.842690805244279
 20
13.047195676409411
 30
0.0
 11
13.89269080524423
 21
13.09719567640936
 31
0.0
  0
LINE
  5
68B76
  8
0
 62
     0
 10
10.52710353035719
 20
9.7316084015223261
 30
0.0
 11
10.57452079130751
 21
9.7790256624726428
 31
0.0
  0
LINE
  5
68B77
  8
0
 62
     0
 10
13.962690805244071
 20
13.1671956764092
 30
0.0
 11
14.012690805244119
 21
13.217195676409251
 31
0.0
  0
LINE
  5
68B78
  8
0
 62
     0
 10
10.372020791307509
 20
9.576525662472644
 30
0.0
 11
10.4620207913075
 21
9.6665256624726457
 31
0.0
  0
LINE
  5
68B79
  8
0
 62
     0
 10
11.88769080524413
 20
11.18058402405758
 30
0.0
 11
11.977690805244119
 21
11.27058402405757
 31
0.0
  0
LINE
  5
68B7A
  8
0
 62
     0
 10
13.84269080524423
 20
13.13558402405768
 30
0.0
 11
13.84663244365956
 21
13.139525662473011
 31
0.0
  0
LINE
  5
68B7B
  8
0
 62
     0
 10
10.589603530357239
 20
9.8824967491706914
 30
0.0
 11
10.679603530357239
 21
9.9724967491706948
 31
0.0
  0
LINE
  5
68B7C
  8
0
 62
     0
 10
13.96269080524406
 20
13.25558402405751
 30
0.0
 11
14.012690805244119
 21
13.30558402405757
 31
0.0
  0
LINE
  5
68B7D
  8
0
 62
     0
 10
10.28363244365919
 20
9.5765256624726423
 30
0.0
 11
10.37363244365919
 21
9.6665256624726457
 31
0.0
  0
LINE
  5
68B7E
  8
0
 62
     0
 10
11.88769080524413
 20
11.268972371705891
 30
0.0
 11
11.977690805244119
 21
11.358972371705891
 31
0.0
  0
LINE
  5
68B7F
  8
0
 62
     0
 10
13.850244096011281
 20
13.23152566247305
 30
0.0
 11
13.892690805244261
 21
13.273972371706011
 31
0.0
  0
LINE
  5
68B80
  8
0
 62
     0
 10
10.589603530357239
 20
9.9708850968190141
 30
0.0
 11
10.679603530357239
 21
10.06088509681901
 31
0.0
  0
LINE
  5
68B81
  8
0
 62
     0
 10
13.92024409601124
 20
13.30152566247301
 30
0.0
 11
14.012690805244119
 21
13.393972371705891
 31
0.0
  0
LINE
  5
68B82
  8
0
 62
     0
 10
10.19524409601086
 20
9.5765256624726458
 30
0.0
 11
10.285244096010871
 21
9.6665256624726457
 31
0.0
  0
LINE
  5
68B83
  8
0
 62
     0
 10
11.88769080524413
 20
11.35736071935421
 30
0.0
 11
11.977690805244119
 21
11.44736071935421
 31
0.0
  0
LINE
  5
68B84
  8
0
 62
     0
 10
13.842690805244271
 20
13.312360719354359
 30
0.0
 11
13.88185574836292
 21
13.35152566247301
 31
0.0
  0
LINE
  5
68B85
  8
0
 62
     0
 10
10.589603530357239
 20
10.05927344446733
 30
0.0
 11
10.679603530357239
 21
10.14927344446733
 31
0.0
  0
LINE
  5
68B86
  8
0
 62
     0
 10
13.94435574836292
 20
13.41402566247301
 30
0.0
 11
14.012690805244119
 21
13.48236071935421
 31
0.0
  0
LINE
  5
68B87
  8
0
 62
     0
 10
10.17960353035725
 20
9.6492734444673314
 30
0.0
 11
10.309355748362551
 21
9.779025662472641
 31
0.0
  0
LINE
  5
68B88
  8
0
 62
     0
 10
11.88769080524413
 20
11.445749067002531
 30
0.0
 11
11.977690805244119
 21
11.535749067002531
 31
0.0
  0
LINE
  5
68B89
  8
0
 62
     0
 10
13.85596740071461
 20
13.41402566247301
 30
0.0
 11
13.905967400714619
 21
13.46402566247302
 31
0.0
  0
LINE
  5
68B8A
  8
0
 62
     0
 10
10.589603530357239
 20
10.147661792115651
 30
0.0
 11
10.679603530357239
 21
10.237661792115651
 31
0.0
  0
LINE
  5
68B8B
  8
0
 62
     0
 10
13.962690805244121
 20
13.52074906700253
 30
0.0
 11
14.012690805244119
 21
13.570749067002531
 31
0.0
  0
LINE
  5
68B8C
  8
0
 62
     0
 10
10.17960353035725
 20
9.7376617921156541
 30
0.0
 11
10.269603530357241
 21
9.8276617921156504
 31
0.0
  0
LINE
  5
68B8D
  8
0
 62
     0
 10
10.589603530357239
 20
10.23605013976397
 30
0.0
 11
10.679603530357239
 21
10.32605013976397
 31
0.0
  0
LINE
  5
68B8E
  8
0
 62
     0
 10
11.88769080524413
 20
11.53413741465085
 30
0.0
 11
11.977690805244119
 21
11.62413741465085
 31
0.0
  0
LINE
  5
68B8F
  8
0
 62
     0
 10
10.17960353035725
 20
9.8260501397639715
 30
0.0
 11
10.269603530357241
 21
9.9160501397639713
 31
0.0
  0
LINE
  5
68B90
  8
0
 62
     0
 10
10.589603530357239
 20
10.324438487412291
 30
0.0
 11
10.679603530357239
 21
10.41443848741228
 31
0.0
  0
LINE
  5
68B91
  8
0
 62
     0
 10
11.887690805244119
 20
11.62252576229916
 30
0.0
 11
11.977690805244119
 21
11.712525762299171
 31
0.0
  0
LINE
  5
68B92
  8
0
 62
     0
 10
10.17960353035725
 20
9.9144384874122888
 30
0.0
 11
10.269603530357241
 21
10.00443848741229
 31
0.0
  0
LINE
  5
68B93
  8
0
 62
     0
 10
10.589603530357239
 20
10.412826835060599
 30
0.0
 11
10.679603530357239
 21
10.502826835060601
 31
0.0
  0
LINE
  5
68B94
  8
0
 62
     0
 10
11.887690805244119
 20
11.71091410994749
 30
0.0
 11
11.977690805244119
 21
11.80091410994749
 31
0.0
  0
LINE
  5
68B95
  8
0
 62
     0
 10
10.17960353035725
 20
10.00282683506061
 30
0.0
 11
10.269603530357241
 21
10.09282683506061
 31
0.0
  0
LINE
  5
68B96
  8
0
 62
     0
 10
10.589603530357239
 20
10.50121518270892
 30
0.0
 11
10.679603530357239
 21
10.59121518270892
 31
0.0
  0
LINE
  5
68B97
  8
0
 62
     0
 10
11.887690805244119
 20
11.7993024575958
 30
0.0
 11
11.977690805244119
 21
11.8893024575958
 31
0.0
  0
LINE
  5
68B98
  8
0
 62
     0
 10
10.17960353035725
 20
10.091215182708931
 30
0.0
 11
10.269603530357241
 21
10.18121518270892
 31
0.0
  0
LINE
  5
68B99
  8
0
 62
     0
 10
10.589603530357239
 20
10.589603530357239
 30
0.0
 11
10.679603530357239
 21
10.679603530357239
 31
0.0
  0
LINE
  5
68B9A
  8
0
 62
     0
 10
11.887690805244119
 20
11.887690805244119
 30
0.0
 11
11.977690805244119
 21
11.977690805244119
 31
0.0
  0
LINE
  5
68B9B
  8
0
 62
     0
 10
10.17960353035725
 20
10.17960353035725
 30
0.0
 11
10.269603530357241
 21
10.269603530357241
 31
0.0
  0
LINE
  5
68B9C
  8
0
 62
     0
 10
10.589603530357239
 20
10.67799187800556
 30
0.0
 11
10.679603530357239
 21
10.76799187800556
 31
0.0
  0
LINE
  5
68B9D
  8
0
 62
     0
 10
11.887690805244119
 20
11.97607915289244
 30
0.0
 11
11.977690805244119
 21
12.06607915289244
 31
0.0
  0
LINE
  5
68B9E
  8
0
 62
     0
 10
10.17960353035725
 20
10.26799187800556
 30
0.0
 11
10.269603530357241
 21
10.35799187800556
 31
0.0
  0
LINE
  5
68B9F
  8
0
 62
     0
 10
10.58960353035725
 20
10.766380225653879
 30
0.0
 11
10.679603530357239
 21
10.856380225653879
 31
0.0
  0
LINE
  5
68BA0
  8
0
 62
     0
 10
11.887690805244119
 20
12.06446750054076
 30
0.0
 11
11.977690805244119
 21
12.154467500540759
 31
0.0
  0
LINE
  5
68BA1
  8
0
 62
     0
 10
10.17960353035725
 20
10.356380225653879
 30
0.0
 11
10.269603530357241
 21
10.446380225653879
 31
0.0
  0
LINE
  5
68BA2
  8
0
 62
     0
 10
10.589603530357239
 20
10.8547685733022
 30
0.0
 11
10.679603530357239
 21
10.9447685733022
 31
0.0
  0
LINE
  5
68BA3
  8
0
 62
     0
 10
11.887690805244119
 20
12.15285584818908
 30
0.0
 11
11.977690805244119
 21
12.24285584818908
 31
0.0
  0
LINE
  5
68BA4
  8
0
 62
     0
 10
10.17960353035725
 20
10.4447685733022
 30
0.0
 11
10.269603530357241
 21
10.5347685733022
 31
0.0
  0
LINE
  5
68BA5
  8
0
 62
     0
 10
10.589603530357239
 20
10.94315692095052
 30
0.0
 11
10.679603530357239
 21
11.03315692095051
 31
0.0
  0
LINE
  5
68BA6
  8
0
 62
     0
 10
11.887690805244119
 20
12.2412441958374
 30
0.0
 11
11.977690805244119
 21
12.3312441958374
 31
0.0
  0
LINE
  5
68BA7
  8
0
 62
     0
 10
10.09797227187936
 20
10.45152566247264
 30
0.0
 11
10.187972271879371
 21
10.54152566247264
 31
0.0
  0
LINE
  5
68BA8
  8
0
 62
     0
 10
10.589603530357239
 20
11.03154526859883
 30
0.0
 11
10.679603530357239
 21
11.12154526859884
 31
0.0
  0
LINE
  5
68BA9
  8
0
 62
     0
 10
11.887690805244119
 20
12.32963254348571
 30
0.0
 11
11.977690805244119
 21
12.41963254348571
 31
0.0
  0
LINE
  5
68BAA
  8
0
 62
     0
 10
10.00958392423105
 20
10.45152566247264
 30
0.0
 11
10.09958392423105
 21
10.54152566247264
 31
0.0
  0
LINE
  5
68BAB
  8
0
 62
     0
 10
10.589603530357239
 20
11.119933616247151
 30
0.0
 11
10.679603530357239
 21
11.209933616247151
 31
0.0
  0
LINE
  5
68BAC
  8
0
 62
     0
 10
9.9211955765827362
 20
10.45152566247264
 30
0.0
 11
10.011195576582731
 21
10.54152566247264
 31
0.0
  0
LINE
  5
68BAD
  8
0
 62
     0
 10
11.887690805244119
 20
12.418020891134031
 30
0.0
 11
11.977690805244119
 21
12.508020891134031
 31
0.0
  0
LINE
  5
68BAE
  8
0
 62
     0
 10
9.0461955765827327
 20
9.5765256624726458
 30
0.0
 11
9.0701035303572475
 21
9.6004336162471553
 31
0.0
  0
LINE
  5
68BAF
  8
0
 62
     0
 10
10.58960353035725
 20
11.20832196389547
 30
0.0
 11
10.679603530357239
 21
11.29832196389547
 31
0.0
  0
LINE
  5
68BB0
  8
0
 62
     0
 10
9.8328072289344188
 20
10.45152566247264
 30
0.0
 11
9.9228072289344151
 21
10.54152566247264
 31
0.0
  0
LINE
  5
68BB1
  8
0
 62
     0
 10
11.887690805244119
 20
12.50640923878235
 30
0.0
 11
11.977690805244119
 21
12.59640923878235
 31
0.0
  0
LINE
  5
68BB2
  8
0
 62
     0
 10
8.9578072289344171
 20
9.5765256624726458
 30
0.0
 11
9.0546035303572481
 21
9.6733219638954751
 31
0.0
  0
LINE
  5
68BB3
  8
0
 62
     0
 10
9.8391035303573382
 20
10.546210311543881
 30
0.0
 11
9.8891035303573425
 21
10.59621031154389
 31
0.0
  0
LINE
  5
68BB4
  8
0
 62
     0
 10
9.7444188812860997
 20
10.45152566247264
 30
0.0
 11
9.8344188812860942
 21
10.54152566247264
 31
0.0
  0
LINE
  5
68BB5
  8
0
 62
     0
 10
10.589603530357239
 20
11.296710311543791
 30
0.0
 11
10.679603530357239
 21
11.386710311543791
 31
0.0
  0
LINE
  5
68BB6
  8
0
 62
     0
 10
8.9646035303572482
 20
9.6717103115437926
 30
0.0
 11
9.0546035303572481
 21
9.7617103115437924
 31
0.0
  0
LINE
  5
68BB7
  8
0
 62
     0
 10
11.887690805244119
 20
12.594797586430669
 30
0.0
 11
11.977690805244119
 21
12.684797586430671
 31
0.0
  0
LINE
  5
68BB8
  8
0
 62
     0
 10
8.8694188812860997
 20
9.5765256624726458
 30
0.0
 11
8.9594188812860995
 21
9.6665256624726457
 31
0.0
  0
LINE
  5
68BB9
  8
0
 62
     0
 10
9.8085305336377786
 20
10.60402566247264
 30
0.0
 11
9.8585305336377793
 21
10.654025662472639
 31
0.0
  0
LINE
  5
68BBA
  8
0
 62
     0
 10
9.6560305336377787
 20
10.45152566247264
 30
0.0
 11
9.7460305336377786
 21
10.54152566247264
 31
0.0
  0
LINE
  5
68BBB
  8
0
 62
     0
 10
10.589603530357239
 20
11.38509865919211
 30
0.0
 11
10.679603530357239
 21
11.47509865919211
 31
0.0
  0
LINE
  5
68BBC
  8
0
 62
     0
 10
8.9335305336377768
 20
9.7290256624726421
 30
0.0
 11
9.0546035303572499
 21
9.8500986591921116
 31
0.0
  0
LINE
  5
68BBD
  8
0
 62
     0
 10
11.887690805244119
 20
12.68318593407899
 30
0.0
 11
11.977690805244119
 21
12.77318593407899
 31
0.0
  0
LINE
  5
68BBE
  8
0
 62
     0
 10
8.7810305336377787
 20
9.576525662472644
 30
0.0
 11
8.8710305336377786
 21
9.6665256624726457
 31
0.0
  0
LINE
  5
68BBF
  8
0
 62
     0
 10
9.5676421859894631
 20
10.45152566247264
 30
0.0
 11
9.6576421859894594
 21
10.54152566247264
 31
0.0
  0
LINE
  5
68BC0
  8
0
 62
     0
 10
10.589603530357239
 20
11.473487006840431
 30
0.0
 11
10.679603530357239
 21
11.563487006840431
 31
0.0
  0
LINE
  5
68BC1
  8
0
 62
     0
 10
8.9646035303572482
 20
9.8484870068404327
 30
0.0
 11
9.0546035303572481
 21
9.9384870068404307
 31
0.0
  0
LINE
  5
68BC2
  8
0
 62
     0
 10
11.887690805244119
 20
12.771574281727309
 30
0.0
 11
11.977690805244119
 21
12.861574281727311
 31
0.0
  0
LINE
  5
68BC3
  8
0
 62
     0
 10
8.6926421859894631
 20
9.576525662472644
 30
0.0
 11
8.7826421859894612
 21
9.6665256624726457
 31
0.0
  0
LINE
  5
68BC4
  8
0
 62
     0
 10
9.4792538383411422
 20
10.45152566247264
 30
0.0
 11
9.5692538383411421
 21
10.54152566247264
 31
0.0
  0
LINE
  5
68BC5
  8
0
 62
     0
 10
10.589603530357239
 20
11.56187535448875
 30
0.0
 11
10.679603530357239
 21
11.651875354488739
 31
0.0
  0
LINE
  5
68BC6
  8
0
 62
     0
 10
8.9646035303572464
 20
9.93687535448875
 30
0.0
 11
9.0546035303572481
 21
10.02687535448875
 31
0.0
  0
LINE
  5
68BC7
  8
0
 62
     0
 10
11.887690805244119
 20
12.85996262937562
 30
0.0
 11
11.977690805244119
 21
12.94996262937563
 31
0.0
  0
LINE
  5
68BC8
  8
0
 62
     0
 10
8.6042538383411422
 20
9.576525662472644
 30
0.0
 11
8.6942538383411421
 21
9.6665256624726457
 31
0.0
  0
LINE
  5
68BC9
  8
0
 62
     0
 10
9.3908654906928248
 20
10.45152566247264
 30
0.0
 11
9.4808654906928247
 21
10.54152566247264
 31
0.0
  0
LINE
  5
68BCA
  8
0
 62
     0
 10
10.58960353035725
 20
11.65026370213706
 30
0.0
 11
10.67960353035725
 21
11.74026370213706
 31
0.0
  0
LINE
  5
68BCB
  8
0
 62
     0
 10
8.9646035303572482
 20
10.02526370213706
 30
0.0
 11
9.0546035303572499
 21
10.11526370213706
 31
0.0
  0
LINE
  5
68BCC
  8
0
 62
     0
 10
11.887690805244119
 20
12.94835097702394
 30
0.0
 11
11.977690805244119
 21
13.03835097702394
 31
0.0
  0
LINE
  5
68BCD
  8
0
 62
     0
 10
8.6683654906928265
 20
9.7290256624726457
 30
0.0
 11
8.7071035303573368
 21
9.7677637021371542
 31
0.0
  0
LINE
  5
68BCE
  8
0
 62
     0
 10
11.97886549069319
 20
13.039525662473009
 30
0.0
 11
12.057690805244009
 21
13.11835097702383
 31
0.0
  0
LINE
  5
68BCF
  8
0
 62
     0
 10
8.5546035303572463
 20
9.6152637021370637
 30
0.0
 11
8.6446035303572817
 21
9.7052637021371027
 31
0.0
  0
LINE
  5
68BD0
  8
0
 62
     0
 10
9.4549771430445091
 20
10.60402566247264
 30
0.0
 11
9.457103530357152
 21
10.60615204978529
 31
0.0
  0
LINE
  5
68BD1
  8
0
 62
     0
 10
9.3024771430445092
 20
10.45152566247264
 30
0.0
 11
9.3951035303571544
 21
10.54415204978528
 31
0.0
  0
LINE
  5
68BD2
  8
0
 62
     0
 10
10.589603530357239
 20
11.738652049785379
 30
0.0
 11
10.67960353035725
 21
11.828652049785379
 31
0.0
  0
LINE
  5
68BD3
  8
0
 62
     0
 10
8.9646035303572482
 20
10.113652049785379
 30
0.0
 11
9.0546035303572499
 21
10.203652049785379
 31
0.0
  0
LINE
  5
68BD4
  8
0
 62
     0
 10
11.887690805244119
 20
13.03673932467226
 30
0.0
 11
11.94047714304487
 21
13.08952566247301
 31
0.0
  0
LINE
  5
68BD5
  8
0
 62
     0
 10
8.5546035303572463
 20
9.7036520497853846
 30
0.0
 11
8.6446035303572462
 21
9.7936520497853845
 31
0.0
  0
LINE
  5
68BD6
  8
0
 62
     0
 10
9.3451035303571501
 20
10.582540397433609
 30
0.0
 11
9.4165887953961889
 21
10.654025662472639
 31
0.0
  0
LINE
  5
68BD7
  8
0
 62
     0
 10
10.589603530357239
 20
11.8270403974337
 30
0.0
 11
10.67960353035725
 21
11.9170403974337
 31
0.0
  0
LINE
  5
68BD8
  8
0
 62
     0
 10
9.2140887953961901
 20
10.45152566247264
 30
0.0
 11
9.3040887953961882
 21
10.54152566247264
 31
0.0
  0
LINE
  5
68BD9
  8
0
 62
     0
 10
11.887690805244119
 20
13.125127672320581
 30
0.0
 11
11.937690805244181
 21
13.17512767232064
 31
0.0
  0
LINE
  5
68BDA
  8
0
 62
     0
 10
8.9646035303572482
 20
10.2020403974337
 30
0.0
 11
9.0546035303572499
 21
10.2920403974337
 31
0.0
  0
LINE
  5
68BDB
  8
0
 62
     0
 10
12.007690805244
 20
13.245127672320461
 30
0.0
 11
12.057690805243981
 21
13.29512767232044
 31
0.0
  0
LINE
  5
68BDC
  8
0
 62
     0
 10
8.5546035303572445
 20
9.7920403974337038
 30
0.0
 11
8.6446035303572462
 21
9.8820403974337001
 31
0.0
  0
LINE
  5
68BDD
  8
0
 62
     0
 10
10.589603530357239
 20
11.915428745082011
 30
0.0
 11
10.679603530357239
 21
12.005428745082019
 31
0.0
  0
LINE
  5
68BDE
  8
0
 62
     0
 10
9.1257004477478691
 20
10.45152566247264
 30
0.0
 11
9.2157004477478672
 21
10.54152566247264
 31
0.0
  0
LINE
  5
68BDF
  8
0
 62
     0
 10
11.887690805244119
 20
13.2135160199689
 30
0.0
 11
11.937690805244181
 21
13.263516019968961
 31
0.0
  0
LINE
  5
68BE0
  8
0
 62
     0
 10
8.9646035303572482
 20
10.29042874508202
 30
0.0
 11
9.0546035303572499
 21
10.380428745082019
 31
0.0
  0
LINE
  5
68BE1
  8
0
 62
     0
 10
11.97570044774824
 20
13.30152566247301
 30
0.0
 11
12.02570044774823
 21
13.35152566247301
 31
0.0
  0
LINE
  5
68BE2
  8
0
 62
     0
 10
8.5546035303572445
 20
9.8804287450820194
 30
0.0
 11
8.6446035303572462
 21
9.9704287450820228
 31
0.0
  0
LINE
  5
68BE3
  8
0
 62
     0
 10
10.589603530357239
 20
12.00381709273034
 30
0.0
 11
10.679603530357239
 21
12.09381709273034
 31
0.0
  0
LINE
  5
68BE4
  8
0
 62
     0
 10
11.887690805244119
 20
13.301904367617221
 30
0.0
 11
11.937690805244131
 21
13.35190436761722
 31
0.0
  0
LINE
  5
68BE5
  8
0
 62
     0
 10
8.9646035303572464
 20
10.37881709273034
 30
0.0
 11
9.1273121000995481
 21
10.54152566247264
 31
0.0
  0
LINE
  5
68BE6
  8
0
 62
     0
 10
11.99981210009992
 20
13.41402566247301
 30
0.0
 11
12.049812100099929
 21
13.46402566247302
 31
0.0
  0
LINE
  5
68BE7
  8
0
 62
     0
 10
8.5546035303572445
 20
9.9688170927303368
 30
0.0
 11
8.6446035303572462
 21
10.05881709273034
 31
0.0
  0
LINE
  5
68BE8
  8
0
 62
     0
 10
10.58960353035725
 20
12.09220544037866
 30
0.0
 11
10.67960353035725
 21
12.182205440378659
 31
0.0
  0
LINE
  5
68BE9
  8
0
 62
     0
 10
8.9646035303572482
 20
10.467205440378651
 30
0.0
 11
9.0389237524512307
 21
10.54152566247264
 31
0.0
  0
LINE
  5
68BEA
  8
0
 62
     0
 10
11.887690805244119
 20
13.390292715265531
 30
0.0
 11
11.96142375245161
 21
13.46402566247302
 31
0.0
  0
LINE
  5
68BEB
  8
0
 62
     0
 10
8.5546035303572463
 20
10.057205440378651
 30
0.0
 11
8.6446035303572462
 21
10.147205440378659
 31
0.0
  0
LINE
  5
68BEC
  8
0
 62
     0
 10
10.589603530357239
 20
12.180593788026981
 30
0.0
 11
10.67960353035725
 21
12.27059378802697
 31
0.0
  0
LINE
  5
68BED
  8
0
 62
     0
 10
11.887690805244119
 20
13.47868106291385
 30
0.0
 11
11.968023065930741
 21
13.55901332360046
 31
0.0
  0
LINE
  5
68BEE
  8
0
 62
     0
 10
8.5546035303572463
 20
10.14559378802697
 30
0.0
 11
8.6446035303572462
 21
10.23559378802697
 31
0.0
  0
LINE
  5
68BEF
  8
0
 62
     0
 10
10.589603530357239
 20
12.268982135675291
 30
0.0
 11
10.67960353035725
 21
12.358982135675291
 31
0.0
  0
LINE
  5
68BF0
  8
0
 62
     0
 10
11.887690805244119
 20
13.567069410562169
 30
0.0
 11
11.897147057154969
 21
13.576525662473021
 31
0.0
  0
LINE
  5
68BF1
  8
0
 62
     0
 10
8.5546035303572463
 20
10.233982135675291
 30
0.0
 11
8.6446035303572462
 21
10.323982135675291
 31
0.0
  0
LINE
  5
68BF2
  8
0
 62
     0
 10
10.589603530357239
 20
12.35737048332361
 30
0.0
 11
10.679603530357239
 21
12.44737048332361
 31
0.0
  0
LINE
  5
68BF3
  8
0
 62
     0
 10
8.5546035303572445
 20
10.32237048332361
 30
0.0
 11
8.6446035303572462
 21
10.41237048332361
 31
0.0
  0
LINE
  5
68BF4
  8
0
 62
     0
 10
10.58960353035725
 20
12.44575883097194
 30
0.0
 11
10.679603530357239
 21
12.535758830971931
 31
0.0
  0
LINE
  5
68BF5
  8
0
 62
     0
 10
8.5546035303572463
 20
10.410758830971931
 30
0.0
 11
8.6446035303572462
 21
10.500758830971931
 31
0.0
  0
LINE
  5
68BF6
  8
0
 62
     0
 10
10.58960353035725
 20
12.53414717862025
 30
0.0
 11
10.67960353035725
 21
12.62414717862025
 31
0.0
  0
LINE
  5
68BF7
  8
0
 62
     0
 10
8.5546035303572463
 20
10.49914717862025
 30
0.0
 11
8.6446035303572462
 21
10.58914717862025
 31
0.0
  0
LINE
  5
68BF8
  8
0
 62
     0
 10
10.589603530357239
 20
12.622535526268569
 30
0.0
 11
10.67960353035725
 21
12.712535526268571
 31
0.0
  0
LINE
  5
68BF9
  8
0
 62
     0
 10
8.5546035303572463
 20
10.587535526268571
 30
0.0
 11
8.6446035303572462
 21
10.677535526268571
 31
0.0
  0
LINE
  5
68BFA
  8
0
 62
     0
 10
10.58960353035725
 20
12.71092387391689
 30
0.0
 11
10.67960353035725
 21
12.80092387391689
 31
0.0
  0
LINE
  5
68BFB
  8
0
 62
     0
 10
8.5546035303572463
 20
10.675923873916879
 30
0.0
 11
8.6446035303572462
 21
10.765923873916879
 31
0.0
  0
LINE
  5
68BFC
  8
0
 62
     0
 10
10.589603530357239
 20
12.7993122215652
 30
0.0
 11
10.67960353035725
 21
12.8893122215652
 31
0.0
  0
LINE
  5
68BFD
  8
0
 62
     0
 10
8.5546035303572481
 20
10.7643122215652
 30
0.0
 11
8.6446035303572462
 21
10.8543122215652
 31
0.0
  0
LINE
  5
68BFE
  8
0
 62
     0
 10
10.589603530357239
 20
12.88770056921352
 30
0.0
 11
10.67960353035725
 21
12.97770056921353
 31
0.0
  0
LINE
  5
68BFF
  8
0
 62
     0
 10
8.5546035303572463
 20
10.852700569213519
 30
0.0
 11
8.6446035303572462
 21
10.942700569213519
 31
0.0
  0
LINE
  5
68C00
  8
0
 62
     0
 10
10.58960353035725
 20
12.976088916861841
 30
0.0
 11
10.67960353035725
 21
13.066088916861849
 31
0.0
  0
LINE
  5
68C01
  8
0
 62
     0
 10
8.5546035303572481
 20
10.94108891686184
 30
0.0
 11
8.6446035303572462
 21
11.03108891686184
 31
0.0
  0
LINE
  5
68C02
  8
0
 62
     0
 10
10.56465192831971
 20
13.03952566247262
 30
0.0
 11
10.614651928319701
 21
13.08952566247263
 31
0.0
  0
LINE
  5
68C03
  8
0
 62
     0
 10
10.629603530357191
 20
13.1044772645101
 30
0.0
 11
10.67960353035725
 21
13.15447726451016
 31
0.0
  0
LINE
  5
68C04
  8
0
 62
     0
 10
8.5546035303572481
 20
11.02947726451016
 30
0.0
 11
8.6446035303572462
 21
11.119477264510159
 31
0.0
  0
LINE
  5
68C05
  8
0
 62
     0
 10
10.50960353035739
 20
13.07286561215861
 30
0.0
 11
10.55960353035735
 21
13.122865612158581
 31
0.0
  0
LINE
  5
68C06
  8
0
 62
     0
 10
10.629603530357191
 20
13.192865612158419
 30
0.0
 11
10.67960353035725
 21
13.24286561215848
 31
0.0
  0
LINE
  5
68C07
  8
0
 62
     0
 10
8.5546035303572463
 20
11.11786561215848
 30
0.0
 11
8.6446035303572462
 21
11.20786561215848
 31
0.0
  0
LINE
  5
68C08
  8
0
 62
     0
 10
10.62960353035718
 20
13.28125395980674
 30
0.0
 11
10.67960353035725
 21
13.3312539598068
 31
0.0
  0
LINE
  5
68C09
  8
0
 62
     0
 10
8.5546035303572481
 20
11.2062539598068
 30
0.0
 11
8.6446035303572462
 21
11.296253959806799
 31
0.0
  0
LINE
  5
68C0A
  8
0
 62
     0
 10
10.56148688537475
 20
13.301525662472621
 30
0.0
 11
10.611486885374751
 21
13.35152566247262
 31
0.0
  0
LINE
  5
68C0B
  8
0
 62
     0
 10
10.50960353035738
 20
13.24964230745525
 30
0.0
 11
10.55960353035737
 21
13.29964230745524
 31
0.0
  0
LINE
  5
68C0C
  8
0
 62
     0
 10
10.62960353035724
 20
13.3696423074551
 30
0.0
 11
10.67960353035725
 21
13.419642307455121
 31
0.0
  0
LINE
  5
68C0D
  8
0
 62
     0
 10
8.5546035303572481
 20
11.294642307455121
 30
0.0
 11
8.6446035303572462
 21
11.38464230745511
 31
0.0
  0
LINE
  5
68C0E
  8
0
 62
     0
 10
10.58559853772644
 20
13.41402566247263
 30
0.0
 11
10.67960353035725
 21
13.50803065510344
 31
0.0
  0
LINE
  5
68C0F
  8
0
 62
     0
 10
8.5546035303572481
 20
11.383030655103431
 30
0.0
 11
8.6446035303572462
 21
11.473030655103431
 31
0.0
  0
LINE
  5
68C10
  8
0
 62
     0
 10
10.509603530357319
 20
13.42641900275183
 30
0.0
 11
10.547210190078131
 21
13.464025662472631
 31
0.0
  0
LINE
  5
68C11
  8
0
 62
     0
 10
10.60971019007814
 20
13.52652566247265
 30
0.0
 11
10.65971019007813
 21
13.57652566247263
 31
0.0
  0
LINE
  5
68C12
  8
0
 62
     0
 10
8.5546035303572481
 20
11.47141900275175
 30
0.0
 11
8.6446035303572462
 21
11.56141900275175
 31
0.0
  0
LINE
  5
68C13
  8
0
 62
     0
 10
8.5546035303572481
 20
11.559807350400069
 30
0.0
 11
8.6446035303572462
 21
11.649807350400071
 31
0.0
  0
LINE
  5
68C14
  8
0
 62
     0
 10
8.5546035303572481
 20
11.64819569804839
 30
0.0
 11
8.6446035303572462
 21
11.73819569804839
 31
0.0
  0
LINE
  5
68C15
  8
0
 62
     0
 10
8.5546035303572481
 20
11.7365840456967
 30
0.0
 11
8.6446035303572462
 21
11.826584045696711
 31
0.0
  0
LINE
  5
68C16
  8
0
 62
     0
 10
8.5546035303572481
 20
11.82497239334503
 30
0.0
 11
8.6446035303572462
 21
11.91497239334503
 31
0.0
  0
LINE
  5
68C17
  8
0
 62
     0
 10
8.5546035303572481
 20
11.91336074099334
 30
0.0
 11
8.6446035303572462
 21
12.00336074099334
 31
0.0
  0
LINE
  5
68C18
  8
0
 62
     0
 10
8.5546035303572481
 20
12.00174908864166
 30
0.0
 11
8.6446035303572462
 21
12.091749088641659
 31
0.0
  0
LINE
  5
68C19
  8
0
 62
     0
 10
8.5546035303572481
 20
12.09013743628998
 30
0.0
 11
8.6446035303572462
 21
12.18013743628998
 31
0.0
  0
LINE
  5
68C1A
  8
0
 62
     0
 10
8.5546035303572481
 20
12.1785257839383
 30
0.0
 11
8.6446035303572462
 21
12.2685257839383
 31
0.0
  0
LINE
  5
68C1B
  8
0
 62
     0
 10
8.5546035303572481
 20
12.266914131586621
 30
0.0
 11
8.6446035303572462
 21
12.35691413158662
 31
0.0
  0
LINE
  5
68C1C
  8
0
 62
     0
 10
8.5546035303572481
 20
12.35530247923494
 30
0.0
 11
8.6446035303572462
 21
12.44530247923494
 31
0.0
  0
LINE
  5
68C1D
  8
0
 62
     0
 10
8.5546035303572481
 20
12.443690826883261
 30
0.0
 11
8.6446035303572462
 21
12.53369082688325
 31
0.0
  0
LINE
  5
68C1E
  8
0
 62
     0
 10
8.5546035303572481
 20
12.532079174531569
 30
0.0
 11
8.6446035303572462
 21
12.622079174531571
 31
0.0
  0
LINE
  5
68C1F
  8
0
 62
     0
 10
8.5546035303572481
 20
12.62046752217989
 30
0.0
 11
8.6446035303572462
 21
12.71046752217989
 31
0.0
  0
LINE
  5
68C20
  8
0
 62
     0
 10
8.5546035303572481
 20
12.708855869828209
 30
0.0
 11
8.6446035303572462
 21
12.798855869828211
 31
0.0
  0
LINE
  5
68C21
  8
0
 62
     0
 10
8.5546035303572481
 20
12.79724421747653
 30
0.0
 11
8.6446035303572462
 21
12.88724421747653
 31
0.0
  0
LINE
  5
68C22
  8
0
 62
     0
 10
8.7084966277050242
 20
13.03952566247262
 30
0.0
 11
8.724603530357097
 21
13.0556325651247
 31
0.0
  0
LINE
  5
68C23
  8
0
 62
     0
 10
8.5546035303572481
 20
12.885632565124849
 30
0.0
 11
8.6446035303572462
 21
12.975632565124849
 31
0.0
  0
LINE
  5
68C24
  8
0
 62
     0
 10
8.6746035303571443
 20
13.094020912773059
 30
0.0
 11
8.7201082800567047
 21
13.13952566247262
 31
0.0
  0
LINE
  5
68C25
  8
0
 62
     0
 10
8.5546035303572481
 20
12.97402091277317
 30
0.0
 11
8.6701082800567075
 21
13.089525662472621
 31
0.0
  0
LINE
  5
68C26
  8
0
 62
     0
 10
8.7237199324084287
 20
13.23152566247267
 30
0.0
 11
8.7246035303571237
 21
13.23240926042136
 31
0.0
  0
LINE
  5
68C27
  8
0
 62
     0
 10
8.5546035303572481
 20
13.062409260421481
 30
0.0
 11
8.6046035303573056
 21
13.11240926042154
 31
0.0
  0
LINE
  5
68C28
  8
0
 62
     0
 10
8.6746035303571176
 20
13.270797608069669
 30
0.0
 11
8.724603530357097
 21
13.32079760806965
 31
0.0
  0
LINE
  5
68C29
  8
0
 62
     0
 10
8.5546035303572481
 20
13.1507976080698
 30
0.0
 11
8.6046035303573056
 21
13.200797608069861
 31
0.0
  0
LINE
  5
68C2A
  8
0
 62
     0
 10
8.6169432371117498
 20
13.301525662472621
 30
0.0
 11
8.6669432371117505
 21
13.35152566247262
 31
0.0
  0
LINE
  5
68C2B
  8
0
 62
     0
 10
8.5546035303572481
 20
13.239185955718121
 30
0.0
 11
8.6046035303573074
 21
13.28918595571818
 31
0.0
  0
LINE
  5
68C2C
  8
0
 62
     0
 10
8.6410548894634331
 20
13.41402566247263
 30
0.0
 11
8.6910548894634463
 21
13.46402566247264
 31
0.0
  0
LINE
  5
68C2D
  8
0
 62
     0
 10
8.5546035303572481
 20
13.32757430336644
 30
0.0
 11
8.6046035303572488
 21
13.37757430336644
 31
0.0
  0
LINE
  5
68C2E
  8
0
 62
     0
 10
8.665166541815152
 20
13.526525662472659
 30
0.0
 11
8.6746976709026331
 21
13.53605679156014
 31
0.0
  0
LINE
  5
68C2F
  8
0
 62
     0
 10
8.5546035303572481
 20
13.415962651014761
 30
0.0
 11
8.6046035303572488
 21
13.46596265101476
 31
0.0
  0
LINE
  5
68C30
  8
0
 62
     0
 10
8.5546035303572481
 20
13.50435099866308
 30
0.0
 11
8.6186617038921192
 21
13.568409172197949
 31
0.0
  0
ENDBLK
  5
68C32
  8
0
  0
BLOCK
  8
0
  2
*X83
 70
     1
 10
0.0
 20
0.0
 30
0.0
  3
*X83
  1

  0
LINE
  5
68C34
  8
0
 62
     0
 10
12.976129454416141
 20
15.44072431451823
 30
0.0
 11
12.9465781064615
 21
15.470275662472879
 31
0.0
  0
LINE
  5
68C35
  8
0
 62
     0
 10
12.976129454416141
 20
15.396530140694081
 30
0.0
 11
12.92612945441614
 21
15.44653014069408
 31
0.0
  0
LINE
  5
68C36
  8
0
 62
     0
 10
12.976129454416141
 20
15.352335966869919
 30
0.0
 11
12.92612945441614
 21
15.40233596686992
 31
0.0
  0
LINE
  5
68C37
  8
0
 62
     0
 10
12.976129454416141
 20
15.30814179304576
 30
0.0
 11
12.92612945441614
 21
15.35814179304576
 31
0.0
  0
LINE
  5
68C38
  8
0
 62
     0
 10
12.976129454416141
 20
15.2639476192216
 30
0.0
 11
12.92612945441614
 21
15.313947619221601
 31
0.0
  0
LINE
  5
68C39
  8
0
 62
     0
 10
12.976129454416141
 20
15.219753445397441
 30
0.0
 11
12.92612945441614
 21
15.26975344539744
 31
0.0
  0
LINE
  5
68C3A
  8
0
 62
     0
 10
12.976129454416141
 20
15.175559271573279
 30
0.0
 11
12.92612945441614
 21
15.22555927157328
 31
0.0
  0
LINE
  5
68C3B
  8
0
 62
     0
 10
12.976129454416141
 20
15.13136509774912
 30
0.0
 11
12.92612945441614
 21
15.18136509774912
 31
0.0
  0
LINE
  5
68C3C
  8
0
 62
     0
 10
12.976129454416141
 20
15.08717092392496
 30
0.0
 11
12.92612945441614
 21
15.137170923924961
 31
0.0
  0
LINE
  5
68C3D
  8
0
 62
     0
 10
12.976129454416141
 20
15.0429767501008
 30
0.0
 11
12.92612945441614
 21
15.092976750100799
 31
0.0
  0
LINE
  5
68C3E
  8
0
 62
     0
 10
12.976129454416141
 20
14.998782576276639
 30
0.0
 11
12.92612945441614
 21
15.04878257627664
 31
0.0
  0
LINE
  5
68C3F
  8
0
 62
     0
 10
12.976129454416141
 20
14.95458840245248
 30
0.0
 11
12.92612945441614
 21
15.00458840245248
 31
0.0
  0
LINE
  5
68C40
  8
0
 62
     0
 10
12.976129454416141
 20
14.91039422862832
 30
0.0
 11
12.92612945441614
 21
14.960394228628321
 31
0.0
  0
LINE
  5
68C41
  8
0
 62
     0
 10
12.976129454416141
 20
14.86620005480416
 30
0.0
 11
12.92612945441614
 21
14.91620005480417
 31
0.0
  0
LINE
  5
68C42
  8
0
 62
     0
 10
12.976129454416141
 20
14.822005880980001
 30
0.0
 11
12.92612945441614
 21
14.87200588098001
 31
0.0
  0
LINE
  5
68C43
  8
0
 62
     0
 10
12.976129454416141
 20
14.77781170715585
 30
0.0
 11
12.92612945441614
 21
14.827811707155851
 31
0.0
  0
LINE
  5
68C44
  8
0
 62
     0
 10
12.976129454416141
 20
14.73361753333168
 30
0.0
 11
12.92612945441614
 21
14.783617533331681
 31
0.0
  0
LINE
  5
68C45
  8
0
 62
     0
 10
12.976129454416141
 20
14.68942335950752
 30
0.0
 11
12.92612945441614
 21
14.73942335950753
 31
0.0
  0
LINE
  5
68C46
  8
0
 62
     0
 10
12.976129454416141
 20
14.645229185683361
 30
0.0
 11
12.92612945441614
 21
14.69522918568337
 31
0.0
  0
LINE
  5
68C47
  8
0
 62
     0
 10
12.976129454416141
 20
14.60103501185921
 30
0.0
 11
12.92612945441614
 21
14.651035011859211
 31
0.0
  0
LINE
  5
68C48
  8
0
 62
     0
 10
12.976129454416141
 20
14.55684083803505
 30
0.0
 11
12.92612945441614
 21
14.606840838035049
 31
0.0
  0
LINE
  5
68C49
  8
0
 62
     0
 10
12.976129454416141
 20
14.512646664210889
 30
0.0
 11
12.92612945441614
 21
14.56264666421089
 31
0.0
  0
LINE
  5
68C4A
  8
0
 62
     0
 10
12.976129454416141
 20
14.46845249038673
 30
0.0
 11
12.92612945441614
 21
14.51845249038673
 31
0.0
  0
LINE
  5
68C4B
  8
0
 62
     0
 10
13.95112945441614
 20
13.49345249038673
 30
0.0
 11
13.924306282330001
 21
13.52027566247288
 31
0.0
  0
LINE
  5
68C4C
  8
0
 62
     0
 10
12.976129454416141
 20
14.42425831656257
 30
0.0
 11
12.92612945441614
 21
14.474258316562571
 31
0.0
  0
LINE
  5
68C4D
  8
0
 62
     0
 10
13.930112108505821
 20
13.470275662472879
 30
0.0
 11
13.880112108505839
 21
13.52027566247288
 31
0.0
  0
LINE
  5
68C4E
  8
0
 62
     0
 10
12.976129454416141
 20
14.38006414273841
 30
0.0
 11
12.92612945441614
 21
14.430064142738409
 31
0.0
  0
LINE
  5
68C4F
  8
0
 62
     0
 10
13.88591793468167
 20
13.470275662472879
 30
0.0
 11
13.83591793468168
 21
13.52027566247288
 31
0.0
  0
LINE
  5
68C50
  8
0
 62
     0
 10
12.976129454416141
 20
14.335869968914251
 30
0.0
 11
12.92612945441614
 21
14.38586996891426
 31
0.0
  0
LINE
  5
68C51
  8
0
 62
     0
 10
13.84172376085751
 20
13.470275662472879
 30
0.0
 11
13.79172376085752
 21
13.52027566247288
 31
0.0
  0
LINE
  5
68C52
  8
0
 62
     0
 10
12.976129454416141
 20
14.291675795090089
 30
0.0
 11
12.92612945441614
 21
14.34167579509009
 31
0.0
  0
LINE
  5
68C53
  8
0
 62
     0
 10
13.797529587033351
 20
13.470275662472879
 30
0.0
 11
13.747529587033361
 21
13.52027566247288
 31
0.0
  0
LINE
  5
68C54
  8
0
 62
     0
 10
12.976129454416141
 20
14.24748162126593
 30
0.0
 11
12.92612945441614
 21
14.297481621265931
 31
0.0
  0
LINE
  5
68C55
  8
0
 62
     0
 10
13.7533354132092
 20
13.470275662472879
 30
0.0
 11
13.703335413209199
 21
13.52027566247288
 31
0.0
  0
LINE
  5
68C56
  8
0
 62
     0
 10
12.976129454416141
 20
14.20328744744177
 30
0.0
 11
12.92612945441614
 21
14.253287447441769
 31
0.0
  0
LINE
  5
68C57
  8
0
 62
     0
 10
13.70914123938504
 20
13.470275662472879
 30
0.0
 11
13.65914123938504
 21
13.52027566247288
 31
0.0
  0
LINE
  5
68C58
  8
0
 62
     0
 10
12.976129454416141
 20
14.159093273617611
 30
0.0
 11
12.92612945441614
 21
14.20909327361762
 31
0.0
  0
LINE
  5
68C59
  8
0
 62
     0
 10
13.664947065560879
 20
13.470275662472879
 30
0.0
 11
13.61494706556088
 21
13.52027566247288
 31
0.0
  0
LINE
  5
68C5A
  8
0
 62
     0
 10
12.976129454416141
 20
14.11489909979346
 30
0.0
 11
12.92612945441614
 21
14.164899099793461
 31
0.0
  0
LINE
  5
68C5B
  8
0
 62
     0
 10
13.62075289173672
 20
13.470275662472879
 30
0.0
 11
13.570752891736721
 21
13.52027566247288
 31
0.0
  0
LINE
  5
68C5C
  8
0
 62
     0
 10
12.976129454416141
 20
14.0707049259693
 30
0.0
 11
12.92612945441614
 21
14.120704925969299
 31
0.0
  0
LINE
  5
68C5D
  8
0
 62
     0
 10
13.57655871791256
 20
13.470275662472879
 30
0.0
 11
13.526558717912559
 21
13.52027566247288
 31
0.0
  0
LINE
  5
68C5E
  8
0
 62
     0
 10
13.45112945441614
 20
13.551510752145139
 30
0.0
 11
13.422364544088399
 21
13.58027566247288
 31
0.0
  0
LINE
  5
68C5F
  8
0
 62
     0
 10
12.976129454416141
 20
14.026510752145141
 30
0.0
 11
12.92612945441614
 21
14.07651075214514
 31
0.0
  0
LINE
  5
68C60
  8
0
 62
     0
 10
13.5323645440884
 20
13.470275662472879
 30
0.0
 11
13.4823645440884
 21
13.52027566247288
 31
0.0
  0
LINE
  5
68C61
  8
0
 62
     0
 10
12.976129454416141
 20
13.98231657832098
 30
0.0
 11
12.92612945441614
 21
14.03231657832098
 31
0.0
  0
LINE
  5
68C62
  8
0
 62
     0
 10
13.488170370264241
 20
13.470275662472879
 30
0.0
 11
13.37817037026424
 21
13.58027566247288
 31
0.0
  0
LINE
  5
68C63
  8
0
 62
     0
 10
13.383976196440081
 20
13.53027566247288
 30
0.0
 11
13.33397619644008
 21
13.58027566247288
 31
0.0
  0
LINE
  5
68C64
  8
0
 62
     0
 10
12.976129454416141
 20
13.93812240449682
 30
0.0
 11
12.92612945441614
 21
13.988122404496821
 31
0.0
  0
LINE
  5
68C65
  8
0
 62
     0
 10
13.443976196440079
 20
13.470275662472879
 30
0.0
 11
13.401129454416139
 21
13.513122404496819
 31
0.0
  0
LINE
  5
68C66
  8
0
 62
     0
 10
12.976129454416141
 20
13.89392823067266
 30
0.0
 11
12.92612945441614
 21
13.943928230672659
 31
0.0
  0
LINE
  5
68C67
  8
0
 62
     0
 10
13.339782022615919
 20
13.53027566247288
 30
0.0
 11
13.28978202261592
 21
13.58027566247288
 31
0.0
  0
LINE
  5
68C68
  8
0
 62
     0
 10
12.976129454416141
 20
13.849734056848501
 30
0.0
 11
12.92612945441614
 21
13.8997340568485
 31
0.0
  0
LINE
  5
68C69
  8
0
 62
     0
 10
13.29558784879177
 20
13.53027566247288
 30
0.0
 11
13.245587848791761
 21
13.58027566247288
 31
0.0
  0
LINE
  5
68C6A
  8
0
 62
     0
 10
12.976129454416141
 20
13.805539883024339
 30
0.0
 11
12.92612945441614
 21
13.85553988302434
 31
0.0
  0
LINE
  5
68C6B
  8
0
 62
     0
 10
13.251393674967609
 20
13.53027566247288
 30
0.0
 11
13.2013936749676
 21
13.58027566247288
 31
0.0
  0
LINE
  5
68C6C
  8
0
 62
     0
 10
12.976129454416141
 20
13.76134570920018
 30
0.0
 11
12.92612945441614
 21
13.811345709200181
 31
0.0
  0
LINE
  5
68C6D
  8
0
 62
     0
 10
13.20719950114345
 20
13.530275662472871
 30
0.0
 11
13.157199501143451
 21
13.58027566247288
 31
0.0
  0
LINE
  5
68C6E
  8
0
 62
     0
 10
12.976129454416141
 20
13.71715153537602
 30
0.0
 11
12.92612945441614
 21
13.767151535376019
 31
0.0
  0
LINE
  5
68C6F
  8
0
 62
     0
 10
13.16300532731929
 20
13.530275662472871
 30
0.0
 11
13.113005327319289
 21
13.58027566247288
 31
0.0
  0
LINE
  5
68C70
  8
0
 62
     0
 10
12.976129454416141
 20
13.672957361551861
 30
0.0
 11
12.92612945441614
 21
13.72295736155187
 31
0.0
  0
LINE
  5
68C71
  8
0
 62
     0
 10
13.11881115349513
 20
13.53027566247288
 30
0.0
 11
13.06881115349513
 21
13.58027566247288
 31
0.0
  0
LINE
  5
68C72
  8
0
 62
     0
 10
12.976129454416141
 20
13.628763187727699
 30
0.0
 11
12.92612945441614
 21
13.678763187727711
 31
0.0
  0
LINE
  5
68C73
  8
0
 62
     0
 10
13.074616979670971
 20
13.53027566247288
 30
0.0
 11
13.02461697967097
 21
13.58027566247288
 31
0.0
  0
LINE
  5
68C74
  8
0
 62
     0
 10
12.976129454416141
 20
13.58456901390354
 30
0.0
 11
12.92612945441614
 21
13.63456901390354
 31
0.0
  0
LINE
  5
68C75
  8
0
 62
     0
 10
13.030422805846801
 20
13.53027566247288
 30
0.0
 11
12.980422805846811
 21
13.58027566247288
 31
0.0
  0
LINE
  5
68C76
  8
0
 62
     0
 10
12.98622863202265
 20
13.530275662472871
 30
0.0
 11
12.92612945441614
 21
13.59037484007939
 31
0.0
  0
LINE
  5
68C77
  8
0
 62
     0
 10
12.94203445819849
 20
13.53027566247288
 30
0.0
 11
12.89203445819849
 21
13.58027566247288
 31
0.0
  0
LINE
  5
68C78
  8
0
 62
     0
 10
12.897840284374331
 20
13.53027566247288
 30
0.0
 11
12.84784028437433
 21
13.58027566247288
 31
0.0
  0
LINE
  5
68C79
  8
0
 62
     0
 10
12.85364611055016
 20
13.530275662472871
 30
0.0
 11
12.80364611055017
 21
13.58027566247288
 31
0.0
  0
LINE
  5
68C7A
  8
0
 62
     0
 10
12.80945193672601
 20
13.530275662472871
 30
0.0
 11
12.759451936726011
 21
13.58027566247288
 31
0.0
  0
LINE
  5
68C7B
  8
0
 62
     0
 10
12.765257762901861
 20
13.530275662472871
 30
0.0
 11
12.71525776290186
 21
13.58027566247288
 31
0.0
  0
LINE
  5
68C7C
  8
0
 62
     0
 10
12.7210635890777
 20
13.53027566247288
 30
0.0
 11
12.671063589077701
 21
13.58027566247288
 31
0.0
  0
LINE
  5
68C7D
  8
0
 62
     0
 10
12.67686941525354
 20
13.53027566247288
 30
0.0
 11
12.626869415253539
 21
13.58027566247288
 31
0.0
  0
LINE
  5
68C7E
  8
0
 62
     0
 10
12.63267524142938
 20
13.530275662472871
 30
0.0
 11
12.58267524142938
 21
13.58027566247288
 31
0.0
  0
LINE
  5
68C7F
  8
0
 62
     0
 10
12.588481067605221
 20
13.530275662472871
 30
0.0
 11
12.53848106760522
 21
13.58027566247288
 31
0.0
  0
LINE
  5
68C80
  8
0
 62
     0
 10
12.544286893781059
 20
13.530275662472871
 30
0.0
 11
12.49428689378106
 21
13.58027566247288
 31
0.0
  0
LINE
  5
68C81
  8
0
 62
     0
 10
12.501129454416141
 20
13.52923892801364
 30
0.0
 11
12.45112945441614
 21
13.579238928013639
 31
0.0
  0
LINE
  5
68C82
  8
0
 62
     0
 10
12.501129454416141
 20
13.485044754189479
 30
0.0
 11
12.45112945441614
 21
13.53504475418948
 31
0.0
  0
LINE
  5
68C83
  8
0
 62
     0
 10
12.471704372308579
 20
13.47027566247287
 30
0.0
 11
12.42170437230858
 21
13.52027566247288
 31
0.0
  0
LINE
  5
68C84
  8
0
 62
     0
 10
12.42751019848442
 20
13.47027566247287
 30
0.0
 11
12.377510198484419
 21
13.52027566247288
 31
0.0
  0
LINE
  5
68C85
  8
0
 62
     0
 10
12.383316024660269
 20
13.47027566247287
 30
0.0
 11
12.33331602466027
 21
13.52027566247288
 31
0.0
  0
LINE
  5
68C86
  8
0
 62
     0
 10
12.33912185083611
 20
13.47027566247287
 30
0.0
 11
12.2891218508361
 21
13.52027566247288
 31
0.0
  0
LINE
  5
68C87
  8
0
 62
     0
 10
12.29492767701195
 20
13.47027566247287
 30
0.0
 11
12.24492767701194
 21
13.52027566247288
 31
0.0
  0
LINE
  5
68C88
  8
0
 62
     0
 10
12.25073350318779
 20
13.47027566247287
 30
0.0
 11
12.200733503187781
 21
13.52027566247288
 31
0.0
  0
LINE
  5
68C89
  8
0
 62
     0
 10
12.206539329363631
 20
13.470275662472879
 30
0.0
 11
12.156539329363619
 21
13.52027566247288
 31
0.0
  0
LINE
  5
68C8A
  8
0
 62
     0
 10
12.162345155539469
 20
13.470275662472879
 30
0.0
 11
12.112345155539471
 21
13.52027566247288
 31
0.0
  0
LINE
  5
68C8B
  8
0
 62
     0
 10
12.11815098171531
 20
13.470275662472879
 30
0.0
 11
12.068150981715309
 21
13.52027566247288
 31
0.0
  0
LINE
  5
68C8C
  8
0
 62
     0
 10
12.07395680789115
 20
13.470275662472879
 30
0.0
 11
12.02395680789115
 21
13.52027566247288
 31
0.0
  0
LINE
  5
68C8D
  8
0
 62
     0
 10
12.029762634066991
 20
13.470275662472879
 30
0.0
 11
11.97976263406699
 21
13.52027566247288
 31
0.0
  0
LINE
  5
68C8E
  8
0
 62
     0
 10
11.985568460242829
 20
13.470275662472879
 30
0.0
 11
11.95112945441614
 21
13.50471466829957
 31
0.0
  0
LINE
  5
68C8F
  8
0
 62
     0
 10
10.61804217952926
 20
13.51197672846167
 30
0.0
 11
10.60974324551843
 21
13.5202756624725
 31
0.0
  0
LINE
  5
68C90
  8
0
 62
     0
 10
9.6430421795293526
 20
14.44278255463742
 30
0.0
 11
9.6156194253935841
 21
14.47020530877319
 31
0.0
  0
LINE
  5
68C91
  8
0
 62
     0
 10
10.615549071694231
 20
13.47027566247254
 30
0.0
 11
10.56554907169428
 21
13.520275662472489
 31
0.0
  0
LINE
  5
68C92
  8
0
 62
     0
 10
9.6430421795293526
 20
14.39858838081326
 30
0.0
 11
9.5930421795291672
 21
14.44858838081344
 31
0.0
  0
LINE
  5
68C93
  8
0
 62
     0
 10
10.57135489787008
 20
13.47027566247254
 30
0.0
 11
10.52135489787012
 21
13.5202756624725
 31
0.0
  0
LINE
  5
68C94
  8
0
 62
     0
 10
9.6430421795293526
 20
14.354394206989101
 30
0.0
 11
9.5930421795291672
 21
14.40439420698929
 31
0.0
  0
LINE
  5
68C95
  8
0
 62
     0
 10
10.52716072404592
 20
13.470275662472529
 30
0.0
 11
10.47716072404595
 21
13.5202756624725
 31
0.0
  0
LINE
  5
68C96
  8
0
 62
     0
 10
9.6430421795293526
 20
14.310200033164939
 30
0.0
 11
9.5930421795291672
 21
14.36020003316513
 31
0.0
  0
LINE
  5
68C97
  8
0
 62
     0
 10
10.48296655022178
 20
13.47027566247251
 30
0.0
 11
10.432966550221799
 21
13.5202756624725
 31
0.0
  0
LINE
  5
68C98
  8
0
 62
     0
 10
9.6430421795293526
 20
14.26600585934078
 30
0.0
 11
9.5930421795291672
 21
14.31600585934097
 31
0.0
  0
LINE
  5
68C99
  8
0
 62
     0
 10
10.43877237639763
 20
13.47027566247251
 30
0.0
 11
10.38877237639764
 21
13.5202756624725
 31
0.0
  0
LINE
  5
68C9A
  8
0
 62
     0
 10
9.6430421795293526
 20
14.22181168551662
 30
0.0
 11
9.5930421795291672
 21
14.2718116855168
 31
0.0
  0
LINE
  5
68C9B
  8
0
 62
     0
 10
10.394578202573481
 20
13.470275662472501
 30
0.0
 11
10.34457820257348
 21
13.5202756624725
 31
0.0
  0
LINE
  5
68C9C
  8
0
 62
     0
 10
9.6430421795293526
 20
14.177617511692461
 30
0.0
 11
9.5930421795291672
 21
14.22761751169265
 31
0.0
  0
LINE
  5
68C9D
  8
0
 62
     0
 10
10.35038402874933
 20
13.47027566247249
 30
0.0
 11
10.30038402874932
 21
13.5202756624725
 31
0.0
  0
LINE
  5
68C9E
  8
0
 62
     0
 10
9.6430421795293526
 20
14.133423337868299
 30
0.0
 11
9.5930421795291672
 21
14.18342333786849
 31
0.0
  0
LINE
  5
68C9F
  8
0
 62
     0
 10
10.306189854925179
 20
13.47027566247248
 30
0.0
 11
10.256189854925161
 21
13.5202756624725
 31
0.0
  0
LINE
  5
68CA0
  8
0
 62
     0
 10
9.6430421795293526
 20
14.08922916404415
 30
0.0
 11
9.5930421795291672
 21
14.13922916404433
 31
0.0
  0
LINE
  5
68CA1
  8
0
 62
     0
 10
10.26199568110103
 20
13.470275662472471
 30
0.0
 11
10.211995681101
 21
13.5202756624725
 31
0.0
  0
LINE
  5
68CA2
  8
0
 62
     0
 10
10.118042179529249
 20
13.57003499022008
 30
0.0
 11
10.1078015072769
 21
13.58027566247244
 31
0.0
  0
LINE
  5
68CA3
  8
0
 62
     0
 10
9.6430421795293526
 20
14.045034990219991
 30
0.0
 11
9.5930421795291672
 21
14.095034990220171
 31
0.0
  0
LINE
  5
68CA4
  8
0
 62
     0
 10
10.21780150727688
 20
13.47027566247246
 30
0.0
 11
10.16780150727684
 21
13.5202756624725
 31
0.0
  0
LINE
  5
68CA5
  8
0
 62
     0
 10
10.11804217952926
 20
13.52584081639592
 30
0.0
 11
10.06360733345274
 21
13.58027566247244
 31
0.0
  0
LINE
  5
68CA6
  8
0
 62
     0
 10
9.6430421795293526
 20
14.000840816395829
 30
0.0
 11
9.5930421795291672
 21
14.050840816396009
 31
0.0
  0
LINE
  5
68CA7
  8
0
 62
     0
 10
10.173607333452731
 20
13.470275662472449
 30
0.0
 11
10.12360733345268
 21
13.5202756624725
 31
0.0
  0
LINE
  5
68CA8
  8
0
 62
     0
 10
9.6430421795293526
 20
13.95664664257167
 30
0.0
 11
9.5930421795291672
 21
14.00664664257185
 31
0.0
  0
LINE
  5
68CA9
  8
0
 62
     0
 10
10.12941315962858
 20
13.47027566247244
 30
0.0
 11
10.019413159628581
 21
13.58027566247244
 31
0.0
  0
LINE
  5
68CAA
  8
0
 62
     0
 10
10.02521898580437
 20
13.530275662472491
 30
0.0
 11
9.9752189858044193
 21
13.58027566247244
 31
0.0
  0
LINE
  5
68CAB
  8
0
 62
     0
 10
9.6430421795293526
 20
13.91245246874751
 30
0.0
 11
9.5930421795291672
 21
13.96245246874769
 31
0.0
  0
LINE
  5
68CAC
  8
0
 62
     0
 10
10.085218985804421
 20
13.47027566247243
 30
0.0
 11
10.068042179529071
 21
13.487452468747779
 31
0.0
  0
LINE
  5
68CAD
  8
0
 62
     0
 10
9.6430421795293526
 20
13.868258294923351
 30
0.0
 11
9.5930421795291672
 21
13.918258294923531
 31
0.0
  0
LINE
  5
68CAE
  8
0
 62
     0
 10
9.9810248119802161
 20
13.530275662472491
 30
0.0
 11
9.9310248119802598
 21
13.58027566247244
 31
0.0
  0
LINE
  5
68CAF
  8
0
 62
     0
 10
9.6430421795293508
 20
13.824064121099189
 30
0.0
 11
9.5930421795291672
 21
13.87406412109936
 31
0.0
  0
LINE
  5
68CB0
  8
0
 62
     0
 10
9.9368306381560565
 20
13.530275662472491
 30
0.0
 11
9.8868306381560984
 21
13.58027566247244
 31
0.0
  0
LINE
  5
68CB1
  8
0
 62
     0
 10
9.6430421795293508
 20
13.77986994727503
 30
0.0
 11
9.5930421795291672
 21
13.82986994727521
 31
0.0
  0
LINE
  5
68CB2
  8
0
 62
     0
 10
9.8926364643318951
 20
13.530275662472491
 30
0.0
 11
9.8426364643319424
 21
13.58027566247244
 31
0.0
  0
LINE
  5
68CB3
  8
0
 62
     0
 10
9.6430421795293508
 20
13.73567577345087
 30
0.0
 11
9.5930421795291672
 21
13.785675773451061
 31
0.0
  0
LINE
  5
68CB4
  8
0
 62
     0
 10
9.8484422905077356
 20
13.530275662472491
 30
0.0
 11
9.7984422905077793
 21
13.58027566247244
 31
0.0
  0
LINE
  5
68CB5
  8
0
 62
     0
 10
9.6430421795293508
 20
13.691481599626711
 30
0.0
 11
9.5930421795291672
 21
13.7414815996269
 31
0.0
  0
LINE
  5
68CB6
  8
0
 62
     0
 10
9.8042481166835778
 20
13.530275662472491
 30
0.0
 11
9.7542481166836197
 21
13.58027566247244
 31
0.0
  0
LINE
  5
68CB7
  8
0
 62
     0
 10
9.6430421795293508
 20
13.647287425802549
 30
0.0
 11
9.5930421795291672
 21
13.69728742580274
 31
0.0
  0
LINE
  5
68CB8
  8
0
 62
     0
 10
9.7600539428594182
 20
13.530275662472491
 30
0.0
 11
9.7100539428594601
 21
13.58027566247244
 31
0.0
  0
LINE
  5
68CB9
  8
0
 62
     0
 10
9.6430421795293508
 20
13.60309325197839
 30
0.0
 11
9.5930421795291672
 21
13.65309325197858
 31
0.0
  0
LINE
  5
68CBA
  8
0
 62
     0
 10
9.7158597690352568
 20
13.530275662472491
 30
0.0
 11
9.6658597690353023
 21
13.58027566247244
 31
0.0
  0
LINE
  5
68CBB
  8
0
 62
     0
 10
9.671665595211099
 20
13.530275662472491
 30
0.0
 11
9.5930421795291672
 21
13.608899078154421
 31
0.0
  0
LINE
  5
68CBC
  8
0
 62
     0
 10
9.6274714213869412
 20
13.530275662472491
 30
0.0
 11
9.5774714213869832
 21
13.58027566247244
 31
0.0
  0
LINE
  5
68CBD
  8
0
 62
     0
 10
9.5832772475627817
 20
13.530275662472491
 30
0.0
 11
9.5332772475628271
 21
13.58027566247244
 31
0.0
  0
LINE
  5
68CBE
  8
0
 62
     0
 10
9.5390830737386203
 20
13.530275662472491
 30
0.0
 11
9.4890830737386693
 21
13.58027566247244
 31
0.0
  0
LINE
  5
68CBF
  8
0
 62
     0
 10
9.4948888999144607
 20
13.530275662472491
 30
0.0
 11
9.4448888999145062
 21
13.58027566247244
 31
0.0
  0
LINE
  5
68CC0
  8
0
 62
     0
 10
9.4506947260903011
 20
13.530275662472491
 30
0.0
 11
9.4006947260903502
 21
13.58027566247244
 31
0.0
  0
LINE
  5
68CC1
  8
0
 62
     0
 10
9.4065005522661433
 20
13.530275662472491
 30
0.0
 11
9.3565005522661906
 21
13.58027566247244
 31
0.0
  0
LINE
  5
68CC2
  8
0
 62
     0
 10
9.3623063784419838
 20
13.530275662472491
 30
0.0
 11
9.3123063784420328
 21
13.58027566247244
 31
0.0
  0
LINE
  5
68CC3
  8
0
 62
     0
 10
9.3181122046178242
 20
13.530275662472491
 30
0.0
 11
9.2681122046178714
 21
13.58027566247244
 31
0.0
  0
LINE
  5
68CC4
  8
0
 62
     0
 10
9.2739180307936646
 20
13.530275662472491
 30
0.0
 11
9.2239180307937119
 21
13.58027566247244
 31
0.0
  0
LINE
  5
68CC5
  8
0
 62
     0
 10
9.229723856969505
 20
13.530275662472491
 30
0.0
 11
9.1797238569695541
 21
13.58027566247244
 31
0.0
  0
LINE
  5
68CC6
  8
0
 62
     0
 10
9.1855296831453472
 20
13.530275662472491
 30
0.0
 11
9.1355296831453945
 21
13.58027566247244
 31
0.0
  0
LINE
  5
68CC7
  8
0
 62
     0
 10
9.16804217952944
 20
13.50356899226424
 30
0.0
 11
9.1180421795292617
 21
13.55356899226442
 31
0.0
  0
LINE
  5
68CC8
  8
0
 62
     0
 10
9.1571413354970872
 20
13.47027566247243
 30
0.0
 11
9.1071413354970154
 21
13.5202756624725
 31
0.0
  0
LINE
  5
68CC9
  8
0
 62
     0
 10
9.1129471616729099
 20
13.470275662472449
 30
0.0
 11
9.0629471616728452
 21
13.52027566247251
 31
0.0
  0
LINE
  5
68CCA
  8
0
 62
     0
 10
9.0687529878487272
 20
13.470275662472471
 30
0.0
 11
9.0187529878486785
 21
13.520275662472519
 31
0.0
  0
LINE
  5
68CCB
  8
0
 62
     0
 10
9.0245588140245516
 20
13.47027566247249
 30
0.0
 11
8.9745588140245101
 21
13.52027566247253
 31
0.0
  0
LINE
  5
68CCC
  8
0
 62
     0
 10
8.9803646402003743
 20
13.47027566247251
 30
0.0
 11
8.9303646402003416
 21
13.520275662472541
 31
0.0
  0
LINE
  5
68CCD
  8
0
 62
     0
 10
8.9361704663761952
 20
13.470275662472529
 30
0.0
 11
8.8861704663761714
 21
13.52027566247255
 31
0.0
  0
LINE
  5
68CCE
  8
0
 62
     0
 10
8.8919762925520196
 20
13.47027566247254
 30
0.0
 11
8.8419762925520011
 21
13.52027566247256
 31
0.0
  0
LINE
  5
68CCF
  8
0
 62
     0
 10
8.8477821187278405
 20
13.470275662472559
 30
0.0
 11
8.7977821187278344
 21
13.520275662472571
 31
0.0
  0
LINE
  5
68CD0
  8
0
 62
     0
 10
8.8035879449036631
 20
13.470275662472581
 30
0.0
 11
8.7535879449036678
 21
13.52027566247258
 31
0.0
  0
LINE
  5
68CD1
  8
0
 62
     0
 10
8.759393771079484
 20
13.4702756624726
 30
0.0
 11
8.7093937710794975
 21
13.52027566247259
 31
0.0
  0
LINE
  5
68CD2
  8
0
 62
     0
 10
8.7151995972553085
 20
13.47027566247262
 30
0.0
 11
8.6651995972553291
 21
13.520275662472599
 31
0.0
  0
LINE
  5
68CD3
  8
0
 62
     0
 10
8.6710054234311311
 20
13.470275662472639
 30
0.0
 11
8.6210054234311606
 21
13.52027566247261
 31
0.0
  0
LINE
  5
68CD4
  8
0
 62
     0
 10
8.626811249606952
 20
13.47027566247265
 30
0.0
 11
8.6180421795292581
 21
13.479044732550349
 31
0.0
  0
ENDBLK
  5
68CD6
  8
0
  0
BLOCK
  8
0
  2
*U85
 70
     1
 10
0.0
 20
0.0
 30
0.0
  3
*U85
  1

  0
SOLID
  5
68D0E
  8
DIM
 10
12.870019448454
 20
15.030776952213589
 30
0.0
 11
12.92612945441614
 21
14.783617533331681
 31
0.0
 12
12.79289261021998
 22
14.999219143853869
 32
0.0
 13
12.79289261021998
 23
14.999219143853869
 33
0.0
  0
POLYLINE
  5
68D0F
  8
DIM
 66
     1
 10
0.0
 20
0.0
 30
0.0
  0
VERTEX
  5
68F03
  8
DIM
 10
12.831456029336991
 20
15.01499804803373
 30
0.0
  0
VERTEX
  5
68F04
  8
DIM
 10
12.22826512509574
 20
16.489188104749761
 30
0.0
  0
VERTEX
  5
68F05
  8
DIM
 10
11.97826512509574
 20
16.489188104749761
 30
0.0
  0
SEQEND
  5
68F06
  8
DIM
  0
ENDBLK
  5
68D15
  8
0
  0
BLOCK
  8
0
  2
*U86
 70
     1
 10
0.0
 20
0.0
 30
0.0
  3
*U86
  1

  0
TEXT
  5
68D17
  8
DIM
 10
10.72254889044363
 20
16.3631649123896
 30
0.0
 40
0.25
  1
2" TEE
  7
STD
  0
TEXT
  5
68D18
  8
DIM
 10
10.48806730790611
 20
15.942064412162219
 30
0.0
 40
0.25
  1
OPTION
  7
STD
  0
ENDBLK
  5
68D1A
  8
0
  0
BLOCK
  8
0
  2
*U87
 70
     1
 10
0.0
 20
0.0
 30
0.0
  3
*U87
  1

  0
SOLID
  5
68D1C
  8
DIM
 10
9.7864375557554553
 20
14.1214354278329
 30
0.0
 11
9.6430421795293526
 21
13.91245246874751
 31
0.0
 12
9.7109081973371598
 22
14.15664566017189
 32
0.0
 13
9.7109081973371598
 23
14.15664566017189
 33
0.0
  0
POLYLINE
  5
68D1D
  8
DIM
 66
     1
 10
0.0
 20
0.0
 30
0.0
  0
VERTEX
  5
68F07
  8
DIM
 10
9.7486728765463067
 20
14.139040544002389
 30
0.0
  0
VERTEX
  5
68F08
  8
DIM
 10
10.20656252524601
 20
15.12125818629765
 30
0.0
  0
VERTEX
  5
68F09
  8
DIM
 10
10.456562525245999
 20
15.12125818629765
 30
0.0
  0
SEQEND
  5
68F0A
  8
DIM
  0
ENDBLK
  5
68D23
  8
0
  0
BLOCK
  8
0
  2
*U88
 70
     1
 10
0.0
 20
0.0
 30
0.0
  3
*U88
  1

  0
TEXT
  5
68D25
  8
DIM
 10
10.598533875859919
 20
14.99523499393749
 30
0.0
 40
0.25
  1
1" TEE
  7
STD
  0
TEXT
  5
68D26
  8
DIM
 10
10.6196798513033
 20
14.57413449371011
 30
0.0
 40
0.25
  1
OPTION
  7
STD
  0
ENDBLK
  5
68D28
  8
0
  0
ENDSEC
  0
SECTION
  2
ENTITIES
  0
POLYLINE
  5
30715
  8
0
 66
     1
 10
0.0
 20
0.0
 30
0.0
 70
     1
1001
ACAD
1000
ASC_BOUNDS
1002
{
1070
    19
1005
30814
1002
}
  0
VERTEX
  5
68E40
  8
0
 10
9.1180421795292617
 20
13.58027566247244
 30
0.0
  0
VERTEX
  5
68E41
  8
0
 10
9.1180421795292617
 20
13.5202756624725
 30
0.0
  0
VERTEX
  5
68E42
  8
0
 10
8.6180421795292617
 20
13.52027566247261
 30
0.0
  0
VERTEX
  5
68E43
  8
0
 10
8.6180421795292617
 20
13.470275662472661
 30
0.0
  0
VERTEX
  5
68E44
  8
0
 10
9.16804217952944
 20
13.47027566247243
 30
0.0
  0
VERTEX
  5
68E45
  8
0
 10
9.16804217952944
 20
13.530275662472491
 30
0.0
  0
VERTEX
  5
68E46
  8
0
 10
10.068042179529071
 20
13.530275662472491
 30
0.0
  0
VERTEX
  5
68E47
  8
0
 10
10.068042179529071
 20
13.47027566247243
 30
0.0
  0
VERTEX
  5
68E48
  8
0
 10
10.61804217952926
 20
13.470275662472551
 30
0.0
  0
VERTEX
  5
68E49
  8
0
 10
10.61804217952926
 20
13.5202756624725
 30
0.0
  0
VERTEX
  5
68E4A
  8
0
 10
10.11804217952926
 20
13.5202756624725
 30
0.0
  0
VERTEX
  5
68E4B
  8
0
 10
10.11804217952926
 20
13.58027566247244
 30
0.0
  0
VERTEX
  5
68E4C
  8
0
 10
9.6430421795293508
 20
13.58027566247244
 30
0.0
  0
VERTEX
  5
68E4D
  8
0
 10
9.6430421795293508
 20
14.47020530877319
 30
0.0
  0
VERTEX
  5
68E4E
  8
0
 10
9.5930421795291672
 20
14.47020530877319
 30
0.0
  0
VERTEX
  5
68E4F
  8
0
 10
9.5930421795291672
 20
13.58027566247244
 30
0.0
  0
SEQEND
  5
68E50
  8
0
  0
LINE
  5
30716
  8
0
 10
12.501129454416141
 20
13.470275662472879
 30
0.0
 11
11.95112945441614
 21
13.470275662472879
 31
0.0
1001
ACAD
1000
ASC_BOUNDS
1002
{
1070
    19
1005
30814
1002
}
  0
LINE
  5
30717
  8
0
 10
11.95112945441614
 20
13.470275662472879
 30
0.0
 11
11.95112945441614
 21
13.52027566247288
 31
0.0
1001
ACAD
1000
ASC_BOUNDS
1002
{
1070
    19
1005
30814
1002
}
  0
LINE
  5
30718
  8
0
 10
11.95112945441614
 20
13.52027566247288
 30
0.0
 11
12.45112945441614
 21
13.52027566247288
 31
0.0
1001
ACAD
1000
ASC_BOUNDS
1002
{
1070
    19
1005
30814
1002
}
  0
LINE
  5
30719
  8
0
 10
12.45112945441614
 20
13.52027566247288
 30
0.0
 11
12.45112945441614
 21
13.58027566247288
 31
0.0
1001
ACAD
1000
ASC_BOUNDS
1002
{
1070
    19
1005
30814
1002
}
  0
LINE
  5
3071A
  8
0
 10
12.45112945441614
 20
13.58027566247288
 30
0.0
 11
12.92612945441614
 21
13.58027566247288
 31
0.0
1001
ACAD
1000
ASC_BOUNDS
1002
{
1070
    19
1005
30814
1002
}
  0
LINE
  5
3071B
  8
0
 10
12.92612945441614
 20
13.58027566247288
 30
0.0
 11
12.92612945441614
 21
15.470275662472879
 31
0.0
1001
ACAD
1000
ASC_BOUNDS
1002
{
1070
    19
1005
30814
1002
}
  0
LINE
  5
3071C
  8
0
 10
12.92612945441614
 20
15.470275662472879
 30
0.0
 11
12.976129454416141
 21
15.470275662472879
 31
0.0
1001
ACAD
1000
ASC_BOUNDS
1002
{
1070
    19
1005
30814
1002
}
  0
LINE
  5
3071D
  8
0
 10
12.976129454416141
 20
15.470275662472879
 30
0.0
 11
12.976129454416141
 21
13.58027566247288
 31
0.0
1001
ACAD
1000
ASC_BOUNDS
1002
{
1070
    19
1005
30814
1002
}
  0
LINE
  5
3071E
  8
0
 10
12.976129454416141
 20
13.58027566247288
 30
0.0
 11
13.45112945441614
 21
13.58027566247288
 31
0.0
1001
ACAD
1000
ASC_BOUNDS
1002
{
1070
    19
1005
30814
1002
}
  0
LINE
  5
3071F
  8
0
 10
13.45112945441614
 20
13.58027566247288
 30
0.0
 11
13.45112945441614
 21
13.52027566247288
 31
0.0
1001
ACAD
1000
ASC_BOUNDS
1002
{
1070
    19
1005
30814
1002
}
  0
LINE
  5
30720
  8
0
 10
13.45112945441614
 20
13.52027566247288
 30
0.0
 11
13.95112945441614
 21
13.52027566247288
 31
0.0
1001
ACAD
1000
ASC_BOUNDS
1002
{
1070
    19
1005
30814
1002
}
  0
LINE
  5
30721
  8
0
 10
13.95112945441614
 20
13.52027566247288
 30
0.0
 11
13.95112945441614
 21
13.470275662472879
 31
0.0
1001
ACAD
1000
ASC_BOUNDS
1002
{
1070
    19
1005
30814
1002
}
  0
LINE
  5
30722
  8
0
 10
13.95112945441614
 20
13.470275662472879
 30
0.0
 11
13.401129454416139
 21
13.470275662472879
 31
0.0
1001
ACAD
1000
ASC_BOUNDS
1002
{
1070
    19
1005
30814
1002
}
  0
LINE
  5
30723
  8
0
 10
13.401129454416139
 20
13.470275662472879
 30
0.0
 11
13.401129454416139
 21
13.53027566247288
 31
0.0
1001
ACAD
1000
ASC_BOUNDS
1002
{
1070
    19
1005
30814
1002
}
  0
LINE
  5
30724
  8
0
 10
13.401129454416139
 20
13.53027566247288
 30
0.0
 11
12.501129454416141
 21
13.53027566247288
 31
0.0
1001
ACAD
1000
ASC_BOUNDS
1002
{
1070
    19
1005
30814
1002
}
  0
LINE
  5
30725
  8
0
 10
12.501129454416141
 20
13.53027566247288
 30
0.0
 11
12.501129454416141
 21
13.470275662472879
 31
0.0
1001
ACAD
1000
ASC_BOUNDS
1002
{
1070
    19
1005
30814
1002
}
  0
POLYLINE
  5
30726
  8
0
 66
     1
 10
0.0
 20
0.0
 30
0.0
 70
     1
1001
ACAD
1000
ASC_BOUNDS
1002
{
1070
    19
1005
307F3
1002
}
  0
VERTEX
  5
68E51
  8
0
 10
8.9021035303572038
 20
9.7290256624726457
 30
0.0
  0
VERTEX
  5
68E52
  8
0
 10
8.9646035303572482
 20
9.7290256624726457
 30
0.0
  0
VERTEX
  5
68E53
  8
0
 10
8.9646035303572482
 20
9.6665256624726457
 30
0.0
  0
VERTEX
  5
68E54
  8
0
 10
8.6446035303572462
 20
9.6665256624726457
 30
0.0
  0
VERTEX
  5
68E55
  8
0
 10
8.644603530357303
 20
9.7290256624726457
 30
0.0
  0
VERTEX
  5
68E56
  8
0
 10
8.707103530357303
 20
9.7290256624726457
 30
0.0
  0
VERTEX
  5
68E57
  8
0
 10
8.7071035303573492
 20
9.7790256624726428
 30
0.0
  0
VERTEX
  5
68E58
  8
0
 10
8.6446035303572462
 20
9.7790256624726428
 30
0.0
  0
VERTEX
  5
68E59
  8
0
 10
8.6446035303572462
 20
13.03952566247262
 30
0.0
  0
VERTEX
  5
68E5A
  8
0
 10
8.7246035303570881
 20
13.03952566247262
 30
0.0
  0
VERTEX
  5
68E5B
  8
0
 10
8.7246035303571432
 20
13.13952566247262
 30
0.0
  0
VERTEX
  5
68E5C
  8
0
 10
8.6746035303571443
 20
13.13952566247262
 30
0.0
  0
VERTEX
  5
68E5D
  8
0
 10
8.6746035303571443
 20
13.089525662472621
 30
0.0
  0
VERTEX
  5
68E5E
  8
0
 10
8.6046035303573056
 20
13.089525662472621
 30
0.0
  0
VERTEX
  5
68E5F
  8
0
 10
8.6046035303573092
 20
13.301525662472621
 30
0.0
  0
VERTEX
  5
68E60
  8
0
 10
8.6746035303571176
 20
13.301525662472621
 30
0.0
  0
VERTEX
  5
68E61
  8
0
 10
8.6746035303571176
 20
13.23152566247262
 30
0.0
  0
VERTEX
  5
68E62
  8
0
 10
8.7246035303571201
 20
13.23152566247267
 30
0.0
  0
VERTEX
  5
68E63
  8
0
 10
8.7246035303570952
 20
13.3315256624726
 30
0.0
  0
VERTEX
  5
68E64
  8
0
 10
8.7046035303570601
 20
13.35152566247262
 30
0.0
  0
VERTEX
  5
68E65
  8
0
 10
8.6046035303572488
 20
13.35152566247262
 30
0.0
  0
VERTEX
  5
68E66
  8
0
 10
8.6046035303572488
 20
13.41402566247263
 30
0.0
  0
VERTEX
  5
68E67
  8
0
 10
8.7246035303571592
 20
13.41402566247263
 30
0.0
  0
VERTEX
  5
68E68
  8
0
 10
8.7246035303572196
 20
13.46402566247264
 30
0.0
  0
VERTEX
  5
68E69
  8
0
 10
8.6046035303572488
 20
13.46402566247264
 30
0.0
  0
VERTEX
  5
68E6A
  8
0
 10
8.6046035303572488
 20
13.52652566247264
 30
0.0
  0
VERTEX
  5
68E6B
  8
0
 10
8.6725458166977987
 20
13.52652566247267
 30
0.0
 42
0.7673269879788631
  0
VERTEX
  5
68E6C
  8
0
 10
8.6750458166977946
 20
13.53585578949159
 30
0.0
  0
VERTEX
  5
68E6D
  8
0
 10
8.6046035303572488
 20
13.576525662472619
 30
0.0
  0
VERTEX
  5
68E6E
  8
0
 10
8.5546035303572481
 20
13.57652566247264
 30
0.0
  0
VERTEX
  5
68E6F
  8
0
 10
8.5546035303572481
 20
9.5765256624726458
 30
0.0
  0
VERTEX
  5
68E70
  8
0
 10
9.0701035303572475
 20
9.5765256624726458
 30
0.0
  0
VERTEX
  5
68E71
  8
0
 10
9.0701035303572475
 20
9.6265256624726412
 30
0.0
  0
VERTEX
  5
68E72
  8
0
 10
9.0546035303572481
 20
9.6265256624726412
 30
0.0
  0
VERTEX
  5
68E73
  8
0
 10
9.0546035303572481
 20
10.45152566247264
 30
0.0
  0
VERTEX
  5
68E74
  8
0
 10
10.17960353035725
 20
10.45152566247264
 30
0.0
  0
VERTEX
  5
68E75
  8
0
 10
10.17960353035725
 20
9.6265256624726412
 30
0.0
  0
VERTEX
  5
68E76
  8
0
 10
10.16410353035725
 20
9.6265256624726412
 30
0.0
  0
VERTEX
  5
68E77
  8
0
 10
10.16410353035725
 20
9.5765256624726458
 30
0.0
  0
VERTEX
  5
68E78
  8
0
 10
10.67960353035725
 20
9.5765256624726458
 30
0.0
  0
VERTEX
  5
68E79
  8
0
 10
10.67960353035725
 20
13.57652566247264
 30
0.0
  0
VERTEX
  5
68E7A
  8
0
 10
10.62960353035724
 20
13.576525662472619
 30
0.0
  0
VERTEX
  5
68E7B
  8
0
 10
10.5591612440167
 20
13.53585578949159
 30
0.0
 42
0.767326987978863
  0
VERTEX
  5
68E7C
  8
0
 10
10.561661244016699
 20
13.52652566247267
 30
0.0
  0
VERTEX
  5
68E7D
  8
0
 10
10.62960353035724
 20
13.52652566247264
 30
0.0
  0
VERTEX
  5
68E7E
  8
0
 10
10.62960353035724
 20
13.46402566247264
 30
0.0
  0
VERTEX
  5
68E7F
  8
0
 10
10.509603530357261
 20
13.46402566247264
 30
0.0
  0
VERTEX
  5
68E80
  8
0
 10
10.50960353035733
 20
13.41402566247263
 30
0.0
  0
VERTEX
  5
68E81
  8
0
 10
10.62960353035724
 20
13.41402566247263
 30
0.0
  0
VERTEX
  5
68E82
  8
0
 10
10.62960353035724
 20
13.35152566247262
 30
0.0
  0
VERTEX
  5
68E83
  8
0
 10
10.529603530357431
 20
13.35152566247262
 30
0.0
  0
VERTEX
  5
68E84
  8
0
 10
10.509603530357399
 20
13.3315256624726
 30
0.0
  0
VERTEX
  5
68E85
  8
0
 10
10.509603530357371
 20
13.23152566247267
 30
0.0
  0
VERTEX
  5
68E86
  8
0
 10
10.55960353035737
 20
13.23152566247262
 30
0.0
  0
VERTEX
  5
68E87
  8
0
 10
10.55960353035737
 20
13.301525662472621
 30
0.0
  0
VERTEX
  5
68E88
  8
0
 10
10.629603530357191
 20
13.301525662472621
 30
0.0
  0
VERTEX
  5
68E89
  8
0
 10
10.629603530357191
 20
13.089525662472621
 30
0.0
  0
VERTEX
  5
68E8A
  8
0
 10
10.55960353035735
 20
13.089525662472621
 30
0.0
  0
VERTEX
  5
68E8B
  8
0
 10
10.55960353035735
 20
13.13952566247262
 30
0.0
  0
VERTEX
  5
68E8C
  8
0
 10
10.509603530357341
 20
13.13952566247262
 30
0.0
  0
VERTEX
  5
68E8D
  8
0
 10
10.509603530357399
 20
13.03952566247262
 30
0.0
  0
VERTEX
  5
68E8E
  8
0
 10
10.589603530357239
 20
13.03952566247262
 30
0.0
  0
VERTEX
  5
68E8F
  8
0
 10
10.589603530357239
 20
9.7790256624726428
 30
0.0
  0
VERTEX
  5
68E90
  8
0
 10
10.52710353035714
 20
9.7790256624726428
 30
0.0
  0
VERTEX
  5
68E91
  8
0
 10
10.52710353035719
 20
9.7290256624726457
 30
0.0
  0
VERTEX
  5
68E92
  8
0
 10
10.58960353035719
 20
9.7290256624726457
 30
0.0
  0
VERTEX
  5
68E93
  8
0
 10
10.589603530357239
 20
9.6665256624726457
 30
0.0
  0
VERTEX
  5
68E94
  8
0
 10
10.269603530357241
 20
9.6665256624726457
 30
0.0
  0
VERTEX
  5
68E95
  8
0
 10
10.269603530357241
 20
9.7290256624726457
 30
0.0
  0
VERTEX
  5
68E96
  8
0
 10
10.332103530357291
 20
9.7290256624726457
 30
0.0
  0
VERTEX
  5
68E97
  8
0
 10
10.332103530357349
 20
9.7790256624726428
 30
0.0
  0
VERTEX
  5
68E98
  8
0
 10
10.269603530357241
 20
9.7790256624726428
 30
0.0
  0
VERTEX
  5
68E99
  8
0
 10
10.269603530357241
 20
10.54152566247264
 30
0.0
  0
VERTEX
  5
68E9A
  8
0
 10
9.8891035303573425
 20
10.54152566247264
 30
0.0
  0
VERTEX
  5
68E9B
  8
0
 10
9.8891035303573425
 20
10.654025662472639
 30
0.0
  0
VERTEX
  5
68E9C
  8
0
 10
9.7771035303573424
 20
10.654025662472639
 30
0.0
  0
VERTEX
  5
68E9D
  8
0
 10
9.7771035303573424
 20
10.60402566247264
 30
0.0
  0
VERTEX
  5
68E9E
  8
0
 10
9.8391035303573382
 20
10.60402566247264
 30
0.0
  0
VERTEX
  5
68E9F
  8
0
 10
9.8391035303573382
 20
10.54152566247264
 30
0.0
  0
VERTEX
  5
68EA0
  8
0
 10
9.3951035303571544
 20
10.54152566247264
 30
0.0
  0
VERTEX
  5
68EA1
  8
0
 10
9.3951035303571544
 20
10.60402566247264
 30
0.0
  0
VERTEX
  5
68EA2
  8
0
 10
9.457103530357152
 20
10.60402566247264
 30
0.0
  0
VERTEX
  5
68EA3
  8
0
 10
9.457103530357152
 20
10.654025662472639
 30
0.0
  0
VERTEX
  5
68EA4
  8
0
 10
9.3451035303571501
 20
10.654025662472639
 30
0.0
  0
VERTEX
  5
68EA5
  8
0
 10
9.3451035303571501
 20
10.54152566247264
 30
0.0
  0
VERTEX
  5
68EA6
  8
0
 10
8.9646035303572482
 20
10.54152566247264
 30
0.0
  0
VERTEX
  5
68EA7
  8
0
 10
8.9646035303572482
 20
9.7790256624726428
 30
0.0
  0
VERTEX
  5
68EA8
  8
0
 10
8.9021035303571452
 20
9.7790256624726428
 30
0.0
  0
SEQEND
  5
68EA9
  8
0
  0
POLYLINE
  5
30727
  8
0
 66
     1
 10
0.0
 20
0.0
 30
0.0
 70
     1
1001
ACAD
1000
ASC_BOUNDS
1002
{
1070
    19
1005
307F3
1002
}
  0
VERTEX
  5
68EAA
  8
0
 10
12.235190805244081
 20
9.7290256624730311
 30
0.0
  0
VERTEX
  5
68EAB
  8
0
 10
12.29769080524413
 20
9.7290256624730311
 30
0.0
  0
VERTEX
  5
68EAC
  8
0
 10
12.29769080524413
 20
9.6665256624730311
 30
0.0
  0
VERTEX
  5
68EAD
  8
0
 10
11.977690805244119
 20
9.6665256624730311
 30
0.0
  0
VERTEX
  5
68EAE
  8
0
 10
11.97769080524418
 20
9.7290256624730311
 30
0.0
  0
VERTEX
  5
68EAF
  8
0
 10
12.04019080524418
 20
9.7290256624730311
 30
0.0
  0
VERTEX
  5
68EB0
  8
0
 10
12.040190805244221
 20
9.7790256624730301
 30
0.0
  0
VERTEX
  5
68EB1
  8
0
 10
11.977690805244119
 20
9.7790256624730301
 30
0.0
  0
VERTEX
  5
68EB2
  8
0
 10
11.977690805244119
 20
13.039525662473009
 30
0.0
  0
VERTEX
  5
68EB3
  8
0
 10
12.05769080524397
 20
13.039525662473009
 30
0.0
  0
VERTEX
  5
68EB4
  8
0
 10
12.05769080524402
 20
13.139525662473011
 30
0.0
  0
VERTEX
  5
68EB5
  8
0
 10
12.007690805244019
 20
13.139525662473011
 30
0.0
  0
VERTEX
  5
68EB6
  8
0
 10
12.007690805244019
 20
13.08952566247301
 30
0.0
  0
VERTEX
  5
68EB7
  8
0
 10
11.937690805244181
 20
13.08952566247301
 30
0.0
  0
VERTEX
  5
68EB8
  8
0
 10
11.937690805244181
 20
13.30152566247301
 30
0.0
  0
VERTEX
  5
68EB9
  8
0
 10
12.007690805244
 20
13.30152566247301
 30
0.0
  0
VERTEX
  5
68EBA
  8
0
 10
12.007690805244
 20
13.231525662473009
 30
0.0
  0
VERTEX
  5
68EBB
  8
0
 10
12.057690805244
 20
13.231525662473061
 30
0.0
  0
VERTEX
  5
68EBC
  8
0
 10
12.05769080524397
 20
13.331525662473
 30
0.0
  0
VERTEX
  5
68EBD
  8
0
 10
12.03769080524394
 20
13.35152566247301
 30
0.0
  0
VERTEX
  5
68EBE
  8
0
 10
11.937690805244131
 20
13.35152566247301
 30
0.0
  0
VERTEX
  5
68EBF
  8
0
 10
11.937690805244131
 20
13.41402566247301
 30
0.0
  0
VERTEX
  5
68EC0
  8
0
 10
12.057690805244039
 20
13.41402566247301
 30
0.0
  0
VERTEX
  5
68EC1
  8
0
 10
12.0576908052441
 20
13.46402566247302
 30
0.0
  0
VERTEX
  5
68EC2
  8
0
 10
11.937690805244131
 20
13.46402566247302
 30
0.0
  0
VERTEX
  5
68EC3
  8
0
 10
11.937690805244131
 20
13.52652566247302
 30
0.0
  0
VERTEX
  5
68EC4
  8
0
 10
12.005633091584681
 20
13.52652566247305
 30
0.0
 42
0.7673269879788631
  0
VERTEX
  5
68EC5
  8
0
 10
12.00813309158468
 20
13.53585578949197
 30
0.0
  0
VERTEX
  5
68EC6
  8
0
 10
11.937690805244131
 20
13.576525662472999
 30
0.0
  0
VERTEX
  5
68EC7
  8
0
 10
11.88769080524413
 20
13.576525662473029
 30
0.0
  0
VERTEX
  5
68EC8
  8
0
 10
11.88769080524413
 20
9.5765256624730313
 30
0.0
  0
VERTEX
  5
68EC9
  8
0
 10
12.40319080524413
 20
9.5765256624730313
 30
0.0
  0
VERTEX
  5
68ECA
  8
0
 10
12.40319080524413
 20
9.6265256624730302
 30
0.0
  0
VERTEX
  5
68ECB
  8
0
 10
12.38769080524413
 20
9.6265256624730302
 30
0.0
  0
VERTEX
  5
68ECC
  8
0
 10
12.38769080524413
 20
10.451525662473029
 30
0.0
  0
VERTEX
  5
68ECD
  8
0
 10
13.51269080524413
 20
10.451525662473029
 30
0.0
  0
VERTEX
  5
68ECE
  8
0
 10
13.51269080524413
 20
9.6265256624730302
 30
0.0
  0
VERTEX
  5
68ECF
  8
0
 10
13.497190805244131
 20
9.6265256624730302
 30
0.0
  0
VERTEX
  5
68ED0
  8
0
 10
13.497190805244131
 20
9.5765256624730313
 30
0.0
  0
VERTEX
  5
68ED1
  8
0
 10
14.01269080524413
 20
9.5765256624730313
 30
0.0
  0
VERTEX
  5
68ED2
  8
0
 10
14.01269080524413
 20
13.576525662473029
 30
0.0
  0
VERTEX
  5
68ED3
  8
0
 10
13.962690805244121
 20
13.576525662472999
 30
0.0
  0
VERTEX
  5
68ED4
  8
0
 10
13.89224851890358
 20
13.53585578949197
 30
0.0
 42
0.767326987978863
  0
VERTEX
  5
68ED5
  8
0
 10
13.89474851890358
 20
13.52652566247305
 30
0.0
  0
VERTEX
  5
68ED6
  8
0
 10
13.962690805244121
 20
13.52652566247302
 30
0.0
  0
VERTEX
  5
68ED7
  8
0
 10
13.962690805244121
 20
13.46402566247302
 30
0.0
  0
VERTEX
  5
68ED8
  8
0
 10
13.84269080524416
 20
13.46402566247302
 30
0.0
  0
VERTEX
  5
68ED9
  8
0
 10
13.84269080524421
 20
13.41402566247301
 30
0.0
  0
VERTEX
  5
68EDA
  8
0
 10
13.962690805244121
 20
13.41402566247301
 30
0.0
  0
VERTEX
  5
68EDB
  8
0
 10
13.962690805244121
 20
13.35152566247301
 30
0.0
  0
VERTEX
  5
68EDC
  8
0
 10
13.862690805244309
 20
13.35152566247301
 30
0.0
  0
VERTEX
  5
68EDD
  8
0
 10
13.842690805244279
 20
13.331525662473
 30
0.0
  0
VERTEX
  5
68EDE
  8
0
 10
13.842690805244249
 20
13.231525662473061
 30
0.0
  0
VERTEX
  5
68EDF
  8
0
 10
13.892690805244261
 20
13.231525662473009
 30
0.0
  0
VERTEX
  5
68EE0
  8
0
 10
13.892690805244261
 20
13.30152566247301
 30
0.0
  0
VERTEX
  5
68EE1
  8
0
 10
13.96269080524406
 20
13.30152566247301
 30
0.0
  0
VERTEX
  5
68EE2
  8
0
 10
13.962690805244071
 20
13.08952566247301
 30
0.0
  0
VERTEX
  5
68EE3
  8
0
 10
13.89269080524423
 20
13.08952566247301
 30
0.0
  0
VERTEX
  5
68EE4
  8
0
 10
13.89269080524423
 20
13.139525662473011
 30
0.0
  0
VERTEX
  5
68EE5
  8
0
 10
13.84269080524423
 20
13.139525662473011
 30
0.0
  0
VERTEX
  5
68EE6
  8
0
 10
13.84269080524429
 20
13.039525662473009
 30
0.0
  0
VERTEX
  5
68EE7
  8
0
 10
13.92269080524413
 20
13.039525662473009
 30
0.0
  0
VERTEX
  5
68EE8
  8
0
 10
13.92269080524413
 20
9.7790256624730301
 30
0.0
  0
VERTEX
  5
68EE9
  8
0
 10
13.860190805244031
 20
9.7790256624730301
 30
0.0
  0
VERTEX
  5
68EEA
  8
0
 10
13.86019080524407
 20
9.7290256624730311
 30
0.0
  0
VERTEX
  5
68EEB
  8
0
 10
13.92269080524407
 20
9.7290256624730311
 30
0.0
  0
VERTEX
  5
68EEC
  8
0
 10
13.92269080524413
 20
9.6665256624730311
 30
0.0
  0
VERTEX
  5
68EED
  8
0
 10
13.60269080524413
 20
9.6665256624730311
 30
0.0
  0
VERTEX
  5
68EEE
  8
0
 10
13.60269080524413
 20
9.7290256624730311
 30
0.0
  0
VERTEX
  5
68EEF
  8
0
 10
13.665190805244171
 20
9.7290256624730311
 30
0.0
  0
VERTEX
  5
68EF0
  8
0
 10
13.665190805244221
 20
9.7790256624730301
 30
0.0
  0
VERTEX
  5
68EF1
  8
0
 10
13.60269080524413
 20
9.7790256624730301
 30
0.0
  0
VERTEX
  5
68EF2
  8
0
 10
13.60269080524413
 20
10.541525662473029
 30
0.0
  0
VERTEX
  5
68EF3
  8
0
 10
13.222190805244219
 20
10.541525662473029
 30
0.0
  0
VERTEX
  5
68EF4
  8
0
 10
13.222190805244219
 20
10.65402566247303
 30
0.0
  0
VERTEX
  5
68EF5
  8
0
 10
13.110190805244221
 20
10.65402566247303
 30
0.0
  0
VERTEX
  5
68EF6
  8
0
 10
13.110190805244221
 20
10.604025662473029
 30
0.0
  0
VERTEX
  5
68EF7
  8
0
 10
13.17219080524422
 20
10.604025662473029
 30
0.0
  0
VERTEX
  5
68EF8
  8
0
 10
13.17219080524422
 20
10.541525662473029
 30
0.0
  0
VERTEX
  5
68EF9
  8
0
 10
12.72819080524402
 20
10.541525662473029
 30
0.0
  0
VERTEX
  5
68EFA
  8
0
 10
12.72819080524402
 20
10.604025662473029
 30
0.0
  0
VERTEX
  5
68EFB
  8
0
 10
12.790190805244031
 20
10.604025662473029
 30
0.0
  0
VERTEX
  5
68EFC
  8
0
 10
12.790190805244031
 20
10.65402566247303
 30
0.0
  0
VERTEX
  5
68EFD
  8
0
 10
12.67819080524403
 20
10.65402566247303
 30
0.0
  0
VERTEX
  5
68EFE
  8
0
 10
12.67819080524403
 20
10.541525662473029
 30
0.0
  0
VERTEX
  5
68EFF
  8
0
 10
12.29769080524413
 20
10.541525662473029
 30
0.0
  0
VERTEX
  5
68F00
  8
0
 10
12.29769080524413
 20
9.7790256624730301
 30
0.0
  0
VERTEX
  5
68F01
  8
0
 10
12.23519080524402
 20
9.7790256624730301
 30
0.0
  0
SEQEND
  5
68F02
  8
0
  0
LINE
  5
3072F
  8
0
 10
12.72572150475089
 20
10.451525662473029
 30
0.0
 11
13.19349252002837
 21
10.451525662473029
 31
0.0
  0
INSERT
  5
307F3
  8
HATCH
  6
CONTINUOUS
  2
*X82
 10
0.0
 20
0.0
 30
0.0
1001
ACAD
1000
HATCH
1002
{
1070
    19
1000
ANSI31
1040
0.5
1040
0.0
1000
ASC_BOUNDS
1070
     2
1070
     1
1070
     1
1005
30727
1070
     1
1070
     1
1005
30726
1000
ASC_SEEDPOINT
1011
9.8042850142518372
1021
-4.4560162041602433E+089
1031
0.0
1021
10.49330799630242
1031
0.0
1000
R14_HATCH_DATA
1000
307F3
1011
1.0
1021
-4.4560162041602433E+089
1031
0.0
1021
0.0
1031
0.0
1011
0.0
1021
-4.4560162041602433E+089
1031
0.0
1021
1.0
1031
0.0
1011
0.0
1021
-4.4560162041602433E+089
1031
0.0
1021
0.0
1031
1.0
1040
0.0
1010
0.0
1020
0.0
1030
1.0
1000
ANSI31
1070
     0
1070
     1
1071
        2
1071
        7
1070
     1
1070
     1
1071
       88
1040
10.17960353035725
1040
10.45152566247264
1040
0.0
1040
10.17960353035725
1040
9.6265256624726412
1040
0.0
1040
10.16410353035725
1040
9.6265256624726412
1040
0.0
1040
10.16410353035725
1040
9.5765256624726458
1040
0.0
1040
10.679603530357239
1040
9.576525662472644
1040
0.0
1040
10.67960353035725
1040
13.57652566247264
1040
0.0
1040
10.629603530357249
1040
13.576525662472619
1040
0.0
1040
10.5591612440167
1040
13.53585578949159
1040
0.7673269879788635
1040
10.561661244016699
1040
13.52652566247267
1040
0.0
1040
10.62960353035724
1040
13.52652566247264
1040
0.0
1040
10.62960353035724
1040
13.46402566247264
1040
0.0
1040
10.509603530357261
1040
13.46402566247264
1040
0.0
1040
10.50960353035733
1040
13.41402566247262
1040
0.0
1040
10.62960353035724
1040
13.41402566247263
1040
0.0
1040
10.62960353035724
1040
13.35152566247262
1040
0.0
1040
10.529603530357431
1040
13.35152566247262
1040
0.0
1040
10.509603530357399
1040
13.3315256624726
1040
0.0
1040
10.509603530357371
1040
13.23152566247267
1040
0.0
1040
10.55960353035737
1040
13.23152566247262
1040
0.0
1040
10.55960353035737
1040
13.301525662472621
1040
0.0
1040
10.62960353035718
1040
13.301525662472621
1040
0.0
1040
10.629603530357191
1040
13.089525662472621
1040
0.0
1040
10.55960353035735
1040
13.089525662472621
1040
0.0
1040
10.55960353035735
1040
13.13952566247262
1040
0.0
1040
10.509603530357341
1040
13.13952566247262
1040
0.0
1040
10.50960353035741
1040
13.03952566247262
1040
0.0
1040
10.58960353035725
1040
13.03952566247262
1040
0.0
1040
10.589603530357239
1040
9.7790256624726428
1040
0.0
1040
10.52710353035714
1040
9.779025662472641
1040
0.0
1040
10.52710353035719
1040
9.7290256624726457
1040
0.0
1040
10.58960353035719
1040
9.7290256624726457
1040
0.0
1040
10.589603530357239
1040
9.6665256624726457
1040
0.0
1040
10.269603530357241
1040
9.6665256624726457
1040
0.0
1040
10.269603530357241
1040
9.7290256624726457
1040
0.0
1040
10.332103530357291
1040
9.7290256624726457
1040
0.0
1040
10.33210353035734
1040
9.779025662472641
1040
0.0
1040
10.269603530357241
1040
9.7790256624726428
1040
0.0
1040
10.269603530357241
1040
10.54152566247264
1040
0.0
1040
9.8891035303573425
1040
10.54152566247264
1040
0.0
1040
9.8891035303573442
1040
10.654025662472639
1040
0.0
1040
9.7771035303573424
1040
10.654025662472639
1040
0.0
1040
9.7771035303573424
1040
10.60402566247264
1040
0.0
1040
9.8391035303573382
1040
10.60402566247264
1040
0.0
1040
9.8391035303573382
1040
10.54152566247264
1040
0.0
1040
9.3951035303571544
1040
10.54152566247264
1040
0.0
1040
9.3951035303571544
1040
10.60402566247264
1040
0.0
1040
9.457103530357152
1040
10.60402566247264
1040
0.0
1040
9.457103530357152
1040
10.654025662472639
1040
0.0
1040
9.3451035303571501
1040
10.654025662472639
1040
0.0
1040
9.3451035303571501
1040
10.54152566247264
1040
0.0
1040
8.9646035303572482
1040
10.54152566247264
1040
0.0
1040
8.9646035303572482
1040
9.7790256624726428
1040
0.0
1040
8.9021035303571452
1040
9.7790256624726428
1040
0.0
1040
8.9021035303572003
1040
9.7290256624726421
1040
0.0
1040
8.9646035303572482
1040
9.7290256624726457
1040
0.0
1040
8.9646035303572482
1040
9.6665256624726457
1040
0.0
1040
8.6446035303572462
1040
9.6665256624726457
1040
0.0
1040
8.644603530357303
1040
9.7290256624726457
1040
0.0
1040
8.707103530357303
1040
9.7290256624726457
1040
0.0
1040
8.7071035303573474
1040
9.779025662472641
1040
0.0
1040
8.6446035303572462
1040
9.7790256624726428
1040
0.0
1040
8.6446035303572462
1040
13.03952566247262
1040
0.0
1040
8.7246035303570881
1040
13.03952566247262
1040
0.0
1040
8.7246035303571432
1040
13.13952566247262
1040
0.0
1040
8.6746035303571443
1040
13.13952566247262
1040
0.0
1040
8.6746035303571443
1040
13.089525662472621
1040
0.0
1040
8.6046035303573056
1040
13.089525662472621
1040
0.0
1040
8.6046035303573074
1040
13.301525662472621
1040
0.0
1040
8.6746035303571176
1040
13.301525662472621
1040
0.0
1040
8.6746035303571176
1040
13.23152566247262
1040
0.0
1040
8.7246035303571201
1040
13.23152566247267
1040
0.0
1040
8.7246035303570952
1040
13.3315256624726
1040
0.0
1040
8.7046035303570584
1040
13.35152566247262
1040
0.0
1040
8.6046035303572488
1040
13.35152566247262
1040
0.0
1040
8.6046035303572488
1040
13.41402566247263
1040
0.0
1040
8.7246035303571592
1040
13.41402566247263
1040
0.0
1040
8.7246035303572196
1040
13.46402566247264
1040
0.0
1040
8.6046035303572488
1040
13.46402566247264
1040
0.0
1040
8.6046035303572488
1040
13.52652566247264
1040
0.0
1040
8.6725458166977987
1040
13.52652566247267
1040
0.7673269879788628
1040
8.6750458166977946
1040
13.53585578949159
1040
0.0
1040
8.604603530357247
1040
13.576525662472619
1040
0.0
1040
8.5546035303572481
1040
13.57652566247264
1040
0.0
1040
8.5546035303572481
1040
9.576525662472644
1040
0.0
1040
9.0701035303572475
1040
9.5765256624726458
1040
0.0
1040
9.0701035303572475
1040
9.6265256624726412
1040
0.0
1040
9.0546035303572481
1040
9.6265256624726412
1040
0.0
1040
9.0546035303572499
1040
10.45152566247264
1040
0.0
1071
        1
1005
30726
1071
        7
1070
     1
1070
     1
1071
       88
1040
11.88769080524413
1040
9.5765256624730313
1040
0.0
1040
12.40319080524413
1040
9.5765256624730313
1040
0.0
1040
12.403190805244121
1040
9.6265256624730302
1040
0.0
1040
12.387690805244119
1040
9.6265256624730302
1040
0.0
1040
12.38769080524413
1040
10.451525662473029
1040
0.0
1040
13.51269080524413
1040
10.451525662473029
1040
0.0
1040
13.512690805244119
1040
9.6265256624730302
1040
0.0
1040
13.497190805244131
1040
9.6265256624730302
1040
0.0
1040
13.497190805244131
1040
9.5765256624730313
1040
0.0
1040
14.01269080524413
1040
9.5765256624730313
1040
0.0
1040
14.01269080524413
1040
13.576525662473029
1040
0.0
1040
13.962690805244121
1040
13.57652566247301
1040
0.0
1040
13.89224851890358
1040
13.53585578949197
1040
0.7673269879788635
1040
13.89474851890358
1040
13.52652566247305
1040
0.0
1040
13.962690805244121
1040
13.52652566247302
1040
0.0
1040
13.962690805244121
1040
13.46402566247302
1040
0.0
1040
13.84269080524416
1040
13.46402566247302
1040
0.0
1040
13.84269080524421
1040
13.41402566247301
1040
0.0
1040
13.962690805244121
1040
13.41402566247301
1040
0.0
1040
13.962690805244121
1040
13.35152566247301
1040
0.0
1040
13.862690805244309
1040
13.35152566247301
1040
0.0
1040
13.842690805244279
1040
13.331525662473
1040
0.0
1040
13.842690805244249
1040
13.23152566247305
1040
0.0
1040
13.892690805244261
1040
13.231525662473009
1040
0.0
1040
13.892690805244261
1040
13.30152566247301
1040
0.0
1040
13.962690805244071
1040
13.30152566247301
1040
0.0
1040
13.962690805244071
1040
13.08952566247301
1040
0.0
1040
13.89269080524423
1040
13.08952566247301
1040
0.0
1040
13.89269080524423
1040
13.139525662473011
1040
0.0
1040
13.84269080524423
1040
13.139525662473011
1040
0.0
1040
13.84269080524429
1040
13.039525662473009
1040
0.0
1040
13.92269080524412
1040
13.039525662473009
1040
0.0
1040
13.92269080524413
1040
9.7790256624730301
1040
0.0
1040
13.860190805244031
1040
9.7790256624730265
1040
0.0
1040
13.86019080524407
1040
9.7290256624730311
1040
0.0
1040
13.92269080524407
1040
9.7290256624730311
1040
0.0
1040
13.92269080524412
1040
9.6665256624730311
1040
0.0
1040
13.602690805244119
1040
9.6665256624730311
1040
0.0
1040
13.60269080524413
1040
9.7290256624730311
1040
0.0
1040
13.665190805244171
1040
9.7290256624730311
1040
0.0
1040
13.665190805244221
1040
9.7790256624730265
1040
0.0
1040
13.602690805244119
1040
9.7790256624730336
1040
0.0
1040
13.602690805244119
1040
10.541525662473029
1040
0.0
1040
13.222190805244219
1040
10.541525662473029
1040
0.0
1040
13.222190805244219
1040
10.65402566247303
1040
0.0
1040
13.110190805244221
1040
10.65402566247303
1040
0.0
1040
13.110190805244221
1040
10.604025662473029
1040
0.0
1040
13.17219080524422
1040
10.604025662473029
1040
0.0
1040
13.17219080524422
1040
10.541525662473029
1040
0.0
1040
12.72819080524402
1040
10.541525662473029
1040
0.0
1040
12.72819080524402
1040
10.604025662473029
1040
0.0
1040
12.790190805244031
1040
10.604025662473029
1040
0.0
1040
12.790190805244031
1040
10.65402566247303
1040
0.0
1040
12.67819080524403
1040
10.65402566247303
1040
0.0
1040
12.67819080524403
1040
10.541525662473029
1040
0.0
1040
12.29769080524413
1040
10.541525662473029
1040
0.0
1040
12.29769080524413
1040
9.7790256624730301
1040
0.0
1040
12.23519080524402
1040
9.7790256624730265
1040
0.0
1040
12.235190805244081
1040
9.7290256624730276
1040
0.0
1040
12.29769080524413
1040
9.7290256624730311
1040
0.0
1040
12.29769080524413
1040
9.6665256624730311
1040
0.0
1040
11.977690805244119
1040
9.6665256624730311
1040
0.0
1040
11.97769080524418
1040
9.7290256624730311
1040
0.0
1040
12.04019080524418
1040
9.7290256624730311
1040
0.0
1040
12.040190805244221
1040
9.7790256624730265
1040
0.0
1040
11.977690805244119
1040
9.7790256624730301
1040
0.0
1040
11.977690805244119
1040
13.039525662473009
1040
0.0
1040
12.05769080524397
1040
13.039525662473009
1040
0.0
1040
12.05769080524402
1040
13.139525662473011
1040
0.0
1040
12.007690805244019
1040
13.139525662473011
1040
0.0
1040
12.007690805244019
1040
13.08952566247301
1040
0.0
1040
11.937690805244181
1040
13.08952566247301
1040
0.0
1040
11.937690805244181
1040
13.30152566247301
1040
0.0
1040
12.007690805244
1040
13.30152566247301
1040
0.0
1040
12.007690805244
1040
13.231525662473009
1040
0.0
1040
12.057690805244
1040
13.231525662473061
1040
0.0
1040
12.05769080524397
1040
13.331525662473
1040
0.0
1040
12.03769080524394
1040
13.35152566247301
1040
0.0
1040
11.937690805244131
1040
13.35152566247301
1040
0.0
1040
11.937690805244131
1040
13.41402566247301
1040
0.0
1040
12.057690805244039
1040
13.41402566247301
1040
0.0
1040
12.0576908052441
1040
13.46402566247302
1040
0.0
1040
11.937690805244131
1040
13.46402566247302
1040
0.0
1040
11.937690805244131
1040
13.52652566247302
1040
0.0
1040
12.005633091584681
1040
13.52652566247305
1040
0.7673269879788628
1040
12.00813309158468
1040
13.53585578949197
1040
0.0
1040
11.93769080524412
1040
13.576525662472999
1040
0.0
1040
11.887690805244119
1040
13.576525662473021
1040
0.0
1071
        1
1005
30727
1070
     0
1070
     1
1040
0.0
1040
0.5
1070
     0
1070
     1
1040
0.7853981633974483
1040
0.0
1040
0.7954951288348653
1040
-0.0441941738241592
1040
0.0441941738241592
1070
     0
1040
0.0058683860273786
1071
        2
1040
9.8042850142518372
1040
10.49330799630242
1040
0.0
1040
11.918191224703779
1040
10.54612346330326
1040
0.0
1002
}
  0
INSERT
  5
30814
  8
HATCH
  6
CONTINUOUS
  2
*X83
 10
0.0
 20
0.0
 30
0.0
1001
ACAD
1000
HATCH
1002
{
1070
    19
1000
ANSI31
1040
0.25
1040
1.570796326794895
1000
ASC_BOUNDS
1070
     2
1070
     1
1070
    16
1005
3071F
1005
30720
1005
30721
1005
30722
1005
30723
1005
30724
1005
30725
1005
30716
1005
30717
1005
30718
1005
30719
1005
3071A
1005
3071B
1005
3071C
1005
3071D
1005
3071E
1070
     1
1070
     1
1005
30715
1000
ASC_SEEDPOINT
1011
9.7852250030149115
1021
-4.4560162041602433E+089
1031
0.0
1021
13.55376012547555
1031
0.0
1000
R14_HATCH_DATA
1000
30814
1011
1.0
1021
-4.4560162041602433E+089
1031
0.0
1021
0.0
1031
0.0
1011
0.0
1021
-4.4560162041602433E+089
1031
0.0
1021
1.0
1031
0.0
1011
0.0
1021
-4.4560162041602433E+089
1031
0.0
1021
0.0
1031
1.0
1040
0.0
1010
0.0
1020
0.0
1030
1.0
1000
ANSI31
1070
     0
1070
     1
1071
        2
1071
        7
1070
     0
1070
     1
1071
       16
1040
10.068042179529071
1040
13.530275662472491
1040
10.068042179529071
1040
13.47027566247243
1040
10.61804217952926
1040
13.470275662472551
1040
10.61804217952926
1040
13.5202756624725
1040
10.11804217952926
1040
13.5202756624725
1040
10.11804217952926
1040
13.58027566247244
1040
9.6430421795293508
1040
13.58027566247244
1040
9.6430421795293526
1040
14.47020530877319
1040
9.5930421795291672
1040
14.47020530877319
1040
9.5930421795291672
1040
13.58027566247244
1040
9.1180421795292581
1040
13.58027566247244
1040
9.1180421795292617
1040
13.5202756624725
1040
8.6180421795292617
1040
13.52027566247261
1040
8.6180421795292617
1040
13.470275662472661
1040
9.1680421795294436
1040
13.47027566247243
1040
9.16804217952944
1040
13.530275662472491
1071
        1
1005
30715
1071
        7
1070
     0
1070
     1
1071
       16
1040
13.401129454416139
1040
13.53027566247288
1040
13.401129454416139
1040
13.470275662472879
1040
13.95112945441614
1040
13.470275662472879
1040
13.95112945441614
1040
13.52027566247288
1040
13.45112945441614
1040
13.52027566247288
1040
13.45112945441614
1040
13.58027566247288
1040
12.976129454416141
1040
13.58027566247288
1040
12.976129454416141
1040
15.470275662472879
1040
12.92612945441614
1040
15.470275662472879
1040
12.92612945441614
1040
13.58027566247288
1040
12.45112945441614
1040
13.58027566247288
1040
12.45112945441614
1040
13.52027566247288
1040
11.95112945441614
1040
13.52027566247288
1040
11.95112945441614
1040
13.470275662472879
1040
12.501129454416141
1040
13.470275662472879
1040
12.501129454416141
1040
13.53027566247288
1071
       16
1005
3071E
1005
3071D
1005
3071C
1005
3071B
1005
3071A
1005
30719
1005
30718
1005
30717
1005
30716
1005
30725
1005
30724
1005
30723
1005
30722
1005
30721
1005
30720
1005
3071F
1070
     0
1070
     1
1040
1.570796326794895
1040
0.25
1070
     0
1070
     1
1040
2.3561944901923431
1040
0.0
1040
0.7954951288348653
1040
-0.0220970869120796
1040
-0.0220970869120796
1070
     0
1040
0.0046105698564899
1071
        2
1040
9.7852250030149115
1040
13.55376012547555
1040
0.0
1040
13.0535584712804
1040
13.54931861206868
1040
0.0
1002
}
  0
DIMENSION
  5
30815
  8
DIM
  2
*D2
 10
12.838011048977631
 20
10.451525662473029
 30
0.0
 11
13.149033340900219
 21
11.30677433536675
 31
0.0
 70
   128
 13
12.40319080524413
 23
9.5765256624730313
 33
0.0
 14
12.39606931073604
 24
10.451525662473029
 34
0.0
 50
90.0
  0
DIMENSION
  5
3083A
  8
DIM
  2
*D4
 10
9.4994286843491942
 20
10.45152566247264
 30
0.0
 11
9.896885306375637
 21
11.30677433536675
 31
0.0
 70
   128
 13
9.0701035303572475
 23
9.5765256624726458
 33
0.0
 14
9.0546035303572481
 24
10.45152566247264
 34
0.0
 50
90.0
  0
DIMENSION
  5
3086A
  8
DIM
  2
*D6
 10
10.16410353035725
 20
9.2044430379606599
 30
0.0
 11
9.6169889742538501
 21
8.7456890713393456
 31
0.0
 70
   128
 13
9.0701035303572475
 23
9.5765256624726458
 33
0.0
 14
10.16410353035725
 24
9.5765256624726458
 34
0.0
1001
ACAD
1000
DSTYLE
1002
{
1070
   287
1070
     5
1070
   279
1070
     2
1002
}
  0
DIMENSION
  5
3088B
  8
DIM
  2
*D7
 10
13.497190805244131
 20
9.205700499045248
 30
0.0
 11
12.944835552338681
 21
8.7500380761270335
 31
0.0
 70
   128
 13
12.40319080524413
 23
9.5765256624730313
 33
0.0
 14
13.497190805244131
 24
9.5765256624730313
 34
0.0
1001
ACAD
1000
DSTYLE
1002
{
1070
   287
1070
     5
1070
   279
1070
     2
1002
}
  0
DIMENSION
  5
308D4
  8
DIM
  2
*D8
 10
10.67960353035725
 20
7.9673336114351931
 30
0.0
 11
9.6171035303572481
 21
7.9673336114351931
 31
0.0
 13
8.5546035303572481
 23
9.5765256624726458
 33
0.0
 14
10.67960353035725
 24
9.5765256624726458
 34
0.0
  0
DIMENSION
  5
308F0
  8
DIM
  2
*D10
 10
14.01269080524413
 20
7.9707019334745821
 30
0.0
 11
12.95019080524413
 21
7.9707019334745821
 31
0.0
 13
11.88769080524413
 23
9.5765256624730313
 33
0.0
 14
14.01269080524413
 24
9.5765256624730313
 34
0.0
  0
DIMENSION
  5
308FE
  8
DIM
  2
*D12
 10
16.460381632774919
 20
15.470275662472879
 30
0.0
 11
16.460381632774919
 21
12.523400662472961
 31
0.0
 13
14.01269080524413
 23
9.5765256624730313
 33
0.0
 14
12.976129454416141
 24
15.470275662472879
 34
0.0
 50
90.0
1001
ACAD
1000
DSTYLE
1002
{
1070
   271
1070
     3
1002
}
  0
DIMENSION
  5
3090C
  8
DIM
  2
*D14
 10
15.12060101909964
 20
13.576525662473029
 30
0.0
 11
15.120601019099629
 21
11.576525662473021
 31
0.0
 13
14.01269080524413
 23
9.5765256624730313
 33
0.0
 14
14.01269080524413
 24
13.576525662473029
 34
0.0
 50
90.0
  0
DIMENSION
  5
3091A
  8
DIM
  2
*D16
 10
6.4114073588264802
 20
14.47020530877319
 30
0.0
 11
6.4114073588264757
 21
12.02336548562292
 31
0.0
 13
8.5546035303572481
 23
9.5765256624726458
 33
0.0
 14
9.5930421795291672
 24
14.47020530877319
 34
0.0
 50
90.0
1001
ACAD
1000
DSTYLE
1002
{
1070
   271
1070
     3
1002
}
  0
DIMENSION
  5
30928
  8
DIM
  2
*D18
 10
7.4899608661523498
 20
13.57652566247264
 30
0.0
 11
7.4899608661523498
 21
11.57652566247264
 31
0.0
 13
8.5546035303572481
 23
9.5765256624726458
 33
0.0
 14
8.5546035303572481
 24
13.57652566247264
 34
0.0
 50
90.0
  0
INSERT
  5
3094A
  8
0
  2
*U85
 10
0.0
 20
0.0
 30
0.0
1001
ACAD
1000
DSTYLE
1002
{
1070
   147
1040
0.09
1070
    77
1070
     0
1002
}
  0
INSERT
  5
3094B
  8
0
  2
*U86
 10
0.0
 20
0.0
 30
0.0
  0
INSERT
  5
3094C
  8
0
  2
*U87
 10
0.0
 20
0.0
 30
0.0
1001
ACAD
1000
DSTYLE
1002
{
1070
   147
1040
0.09
1070
    77
1070
     0
1002
}
  0
INSERT
  5
3094D
  8
0
  2
*U88
 10
0.0
 20
0.0
 30
0.0
  0
VIEWPORT
  5
5D
 67
     1
  8
0
 10
5.1028366720533187
 20
3.8825525951487041
 30
0.0
 40
15.277097025214029
 41
7.8362521211686058
 68
     1
 69
     1
1001
ACAD
1000
MVIEW
1002
{
1070
    16
1010
0.0
1020
0.0
1030
0.0
1010
0.0
1020
0.0
1030
1.0
1040
0.0
1040
7.8362521211686058
1040
5.1028366720533187
1040
3.8825525951487041
1040
50.0
1040
0.0
1040
0.0
1070
     0
1070
   100
1070
     1
1070
     1
1070
     0
1070
     0
1070
     0
1070
     0
1040
0.0
1040
0.0
1040
0.0
1040
0.5
1040
0.5
1040
0.5
1040
0.5
1070
     0
1002
{
1002
}
1002
}
  0
ENDSEC
  0
EOF
