  0
SECTION
  2
HEADER
  9
$ACADVER
  1
AC1015
  9
$ACADMAINTVER
 70
    20
  9
$DWGCODEPAGE
  3
ANSI_1252
  9
$INSBASE
 10
1.235102848601107
 20
11.24774640129371
 30
0.0
  9
$EXTMIN
 10
2.885499687398203
 20
0.1273541655613469
 30
0.0
  9
$EXTMAX
 10
5.954181323947753
 20
4.038263641177504
 30
0.0
  9
$LIMMIN
 10
0.0
 20
0.0
  9
$LIMMAX
 10
12.0
 20
9.0
  9
$ORTHOMODE
 70
     1
  9
$REGENMODE
 70
     1
  9
$FILLMODE
 70
     1
  9
$QTEXTMODE
 70
     0
  9
$MIRRTEXT
 70
     0
  9
$LTSCALE
 40
1.0
  9
$ATTMODE
 70
     1
  9
$TEXTSIZE
 40
0.25
  9
$TRACEWID
 40
0.05
  9
$TEXTSTYLE
  7
STD
  9
$CLAYER
  8
0
  9
$CELTYPE
  6
ByLayer
  9
$CECOLOR
 62
   256
  9
$CELTSCALE
 40
1.0
  9
$DISPSILH
 70
     0
  9
$DIMSCALE
 40
1.0
  9
$DIMASZ
 40
0.18
  9
$DIMEXO
 40
0.0625
  9
$DIMDLI
 40
0.38
  9
$DIMRND
 40
0.0
  9
$DIMDLE
 40
0.0
  9
$DIMEXE
 40
0.18
  9
$DIMTP
 40
0.0
  9
$DIMTM
 40
0.0
  9
$DIMTXT
 40
0.18
  9
$DIMCEN
 40
0.09
  9
$DIMTSZ
 40
0.0
  9
$DIMTOL
 70
     0
  9
$DIMLIM
 70
     0
  9
$DIMTIH
 70
     1
  9
$DIMTOH
 70
     1
  9
$DIMSE1
 70
     0
  9
$DIMSE2
 70
     0
  9
$DIMTAD
 70
     0
  9
$DIMZIN
 70
     0
  9
$DIMBLK
  1

  9
$DIMASO
 70
     1
  9
$DIMSHO
 70
     1
  9
$DIMPOST
  1

  9
$DIMAPOST
  1

  9
$DIMALT
 70
     0
  9
$DIMALTD
 70
     2
  9
$DIMALTF
 40
25.4
  9
$DIMLFAC
 40
1.0
  9
$DIMTOFL
 70
     0
  9
$DIMTVP
 40
0.0
  9
$DIMTIX
 70
     0
  9
$DIMSOXD
 70
     0
  9
$DIMSAH
 70
     0
  9
$DIMBLK1
  1

  9
$DIMBLK2
  1

  9
$DIMSTYLE
  2
STANDARD
  9
$DIMCLRD
 70
     0
  9
$DIMCLRE
 70
     0
  9
$DIMCLRT
 70
     0
  9
$DIMTFAC
 40
1.0
  9
$DIMGAP
 40
0.09
  9
$DIMJUST
 70
     0
  9
$DIMSD1
 70
     0
  9
$DIMSD2
 70
     0
  9
$DIMTOLJ
 70
     1
  9
$DIMTZIN
 70
     0
  9
$DIMALTZ
 70
     0
  9
$DIMALTTZ
 70
     0
  9
$DIMUPT
 70
     0
  9
$DIMDEC
 70
     4
  9
$DIMTDEC
 70
     4
  9
$DIMALTU
 70
     2
  9
$DIMALTTD
 70
     2
  9
$DIMTXSTY
  7
STANDARD
  9
$DIMAUNIT
 70
     0
  9
$DIMADEC
 70
     0
  9
$DIMALTRND
 40
0.0
  9
$DIMAZIN
 70
     0
  9
$DIMDSEP
 70
    46
  9
$DIMATFIT
 70
     3
  9
$DIMFRAC
 70
     0
  9
$DIMLDRBLK
  1

  9
$DIMLUNIT
 70
     2
  9
$DIMLWD
 70
    -2
  9
$DIMLWE
 70
    -2
  9
$DIMTMOVE
 70
     0
  9
$LUNITS
 70
     5
  9
$LUPREC
 70
     6
  9
$SKETCHINC
 40
0.1
  9
$FILLETRAD
 40
0.0
  9
$AUNITS
 70
     0
  9
$AUPREC
 70
     0
  9
$MENU
  1
.
  9
$ELEVATION
 40
0.0
  9
$PELEVATION
 40
0.0
  9
$THICKNESS
 40
0.0
  9
$LIMCHECK
 70
     0
  9
$CHAMFERA
 40
0.5
  9
$CHAMFERB
 40
0.5
  9
$CHAMFERC
 40
0.0
  9
$CHAMFERD
 40
0.0
  9
$SKPOLY
 70
     0
  9
$TDCREATE
 40
2451225.386950695
  9
$TDUCREATE
 40
2451225.595284028
  9
$TDUPDATE
 40
2454690.612544699
  9
$TDUUPDATE
 40
2454690.820878032
  9
$TDINDWG
 40
0.8090481250
  9
$TDUSRTIMER
 40
0.8090481250
  9
$USRTIMER
 70
     1
  9
$ANGBASE
 50
0.0
  9
$ANGDIR
 70
     0
  9
$PDMODE
 70
     3
  9
$PDSIZE
 40
0.0
  9
$PLINEWID
 40
0.0
  9
$SPLFRAME
 70
     0
  9
$SPLINETYPE
 70
     6
  9
$SPLINESEGS
 70
     8
  9
$HANDSEED
  5
6870C
  9
$SURFTAB1
 70
     6
  9
$SURFTAB2
 70
     6
  9
$SURFTYPE
 70
     6
  9
$SURFU
 70
     6
  9
$SURFV
 70
     6
  9
$UCSBASE
  2

  9
$UCSNAME
  2

  9
$UCSORG
 10
0.0
 20
0.0
 30
0.0
  9
$UCSXDIR
 10
1.0
 20
0.0
 30
0.0
  9
$UCSYDIR
 10
0.0
 20
1.0
 30
0.0
  9
$UCSORTHOREF
  2

  9
$UCSORTHOVIEW
 70
     0
  9
$UCSORGTOP
 10
0.0
 20
0.0
 30
0.0
  9
$UCSORGBOTTOM
 10
0.0
 20
0.0
 30
0.0
  9
$UCSORGLEFT
 10
0.0
 20
0.0
 30
0.0
  9
$UCSORGRIGHT
 10
0.0
 20
0.0
 30
0.0
  9
$UCSORGFRONT
 10
0.0
 20
0.0
 30
0.0
  9
$UCSORGBACK
 10
0.0
 20
0.0
 30
0.0
  9
$PUCSBASE
  2

  9
$PUCSNAME
  2

  9
$PUCSORG
 10
0.0
 20
0.0
 30
0.0
  9
$PUCSXDIR
 10
1.0
 20
0.0
 30
0.0
  9
$PUCSYDIR
 10
0.0
 20
1.0
 30
0.0
  9
$PUCSORTHOREF
  2

  9
$PUCSORTHOVIEW
 70
     0
  9
$PUCSORGTOP
 10
0.0
 20
0.0
 30
0.0
  9
$PUCSORGBOTTOM
 10
0.0
 20
0.0
 30
0.0
  9
$PUCSORGLEFT
 10
0.0
 20
0.0
 30
0.0
  9
$PUCSORGRIGHT
 10
0.0
 20
0.0
 30
0.0
  9
$PUCSORGFRONT
 10
0.0
 20
0.0
 30
0.0
  9
$PUCSORGBACK
 10
0.0
 20
0.0
 30
0.0
  9
$USERI1
 70
     0
  9
$USERI2
 70
     0
  9
$USERI3
 70
     0
  9
$USERI4
 70
     0
  9
$USERI5
 70
     0
  9
$USERR1
 40
0.0
  9
$USERR2
 40
0.0
  9
$USERR3
 40
0.0
  9
$USERR4
 40
0.0
  9
$USERR5
 40
0.0
  9
$WORLDVIEW
 70
     1
  9
$SHADEDGE
 70
     3
  9
$SHADEDIF
 70
    70
  9
$TILEMODE
 70
     1
  9
$MAXACTVP
 70
    48
  9
$PINSBASE
 10
0.0
 20
0.0
 30
0.0
  9
$PLIMCHECK
 70
     0
  9
$PEXTMIN
 10
-0.0001218952091371
 20
-0.0000080246436092
 30
-0.0000000000000053
  9
$PEXTMAX
 10
10.20579523931576
 20
7.765113214941017
 30
0.0000000000000099
  9
$PLIMMIN
 10
-0.2079161059762549
 20
-0.2079166691697489
  9
$PLIMMAX
 10
10.79208365372785
 20
8.29208309053436
  9
$UNITMODE
 70
     0
  9
$VISRETAIN
 70
     1
  9
$PLINEGEN
 70
     0
  9
$PSLTSCALE
 70
     1
  9
$TREEDEPTH
 70
  3020
  9
$CMLSTYLE
  2
Standard
  9
$CMLJUST
 70
     0
  9
$CMLSCALE
 40
1.0
  9
$PROXYGRAPHICS
 70
     1
  9
$MEASUREMENT
 70
     0
  9
$CELWEIGHT
370
    -1
  9
$ENDCAPS
280
     0
  9
$JOINSTYLE
280
     0
  9
$LWDISPLAY
290
     0
  9
$INSUNITS
 70
     0
  9
$HYPERLINKBASE
  1

  9
$STYLESHEET
  1

  9
$XEDIT
290
     1
  9
$CEPSNTYPE
380
     0
  9
$PSTYLEMODE
290
     1
  9
$FINGERPRINTGUID
  2
{C7CA512D-CC4E-4834-A311-23E5F61EE365}
  9
$VERSIONGUID
  2
{24F46CD7-C6FE-4152-86EB-112A44CAC22D}
  9
$EXTNAMES
290
     1
  9
$PSVPSCALE
 40
0.0
  9
$OLESTARTUP
290
     0
  0
ENDSEC
  0
SECTION
  2
CLASSES
  0
CLASS
  1
ACDBDICTIONARYWDFLT
  2
AcDbDictionaryWithDefault
  3
ObjectDBX Classes
 90
        0
280
     0
281
     0
  0
CLASS
  1
MATERIAL
  2
AcDbMaterial
  3
ObjectDBX Classes
 90
     1153
280
     0
281
     0
  0
CLASS
  1
VISUALSTYLE
  2
AcDbVisualStyle
  3
ObjectDBX Classes
 90
     4095
280
     0
281
     0
  0
CLASS
  1
TABLESTYLE
  2
AcDbTableStyle
  3
ObjectDBX Classes
 90
     4095
280
     0
281
     0
  0
CLASS
  1
SORTENTSTABLE
  2
AcDbSortentsTable
  3
ObjectDBX Classes
 90
        0
280
     0
281
     0
  0
CLASS
  1
DICTIONARYVAR
  2
AcDbDictionaryVar
  3
ObjectDBX Classes
 90
        0
280
     0
281
     0
  0
CLASS
  1
ACDBPLACEHOLDER
  2
AcDbPlaceHolder
  3
ObjectDBX Classes
 90
        0
280
     0
281
     0
  0
CLASS
  1
LAYOUT
  2
AcDbLayout
  3
ObjectDBX Classes
 90
        0
280
     0
281
     0
  0
ENDSEC
  0
SECTION
  2
TABLES
  0
TABLE
  2
VPORT
  5
685A7
330
0
100
AcDbSymbolTable
 70
     1
  0
VPORT
  5
685DA
330
685A7
100
AcDbSymbolTableRecord
100
AcDbViewportTableRecord
  2
*ACTIVE
 70
     0
 10
0.0
 20
0.0
 11
1.0
 21
1.0
 12
4.419799830787582
 22
2.082664507886701
 13
0.0
 23
0.0
 14
0.5
 24
0.5
 15
0.5
 25
0.5
 16
0.0
 26
0.0
 36
1.0
 17
0.0
 27
0.0
 37
0.0
 40
3.947652912714169
 41
1.949541284403669
 42
50.0
 43
0.0
 44
0.0
 50
0.0
 51
0.0
 71
     0
 72
   100
 73
     1
 74
     1
 75
     0
 76
     0
 77
     0
 78
     0
281
     0
 65
     1
110
0.0
120
0.0
130
0.0
111
1.0
121
0.0
131
0.0
112
0.0
122
1.0
132
0.0
 79
     0
146
0.0
  0
ENDTAB
  0
TABLE
  2
LTYPE
  5
685A4
330
0
100
AcDbSymbolTable
 70
     1
  0
LTYPE
  5
685C7
330
685A4
100
AcDbSymbolTableRecord
100
AcDbLinetypeTableRecord
  2
ByBlock
 70
     0
  3

 72
    65
 73
     0
 40
0.0
  0
LTYPE
  5
685C8
330
685A4
100
AcDbSymbolTableRecord
100
AcDbLinetypeTableRecord
  2
ByLayer
 70
     0
  3

 72
    65
 73
     0
 40
0.0
  0
LTYPE
  5
685C9
330
685A4
100
AcDbSymbolTableRecord
100
AcDbLinetypeTableRecord
  2
CONTINUOUS
 70
     0
  3
Solid line
 72
    65
 73
     0
 40
0.0
  0
ENDTAB
  0
TABLE
  2
LAYER
  5
685A1
330
0
100
AcDbSymbolTable
 70
     4
  0
LAYER
  5
685C4
330
685A1
100
AcDbSymbolTableRecord
100
AcDbLayerTableRecord
  2
0
 70
     0
 62
     7
  6
CONTINUOUS
370
    -3
390
685AE
  0
LAYER
  5
685DB
330
685A1
100
AcDbSymbolTableRecord
100
AcDbLayerTableRecord
  2
DEFPOINTS
 70
     0
 62
   252
  6
CONTINUOUS
290
     0
370
    -3
390
685AE
  0
LAYER
  5
685DC
330
685A1
100
AcDbSymbolTableRecord
100
AcDbLayerTableRecord
  2
DIM
 70
     0
 62
     1
  6
CONTINUOUS
370
    -3
390
685AE
  0
LAYER
  5
685DD
330
685A1
100
AcDbSymbolTableRecord
100
AcDbLayerTableRecord
  2
HATCH
 70
     0
 62
     2
  6
CONTINUOUS
370
    -3
390
685AE
  0
ENDTAB
  0
TABLE
  2
STYLE
  5
685A2
330
0
100
AcDbSymbolTable
 70
     2
  0
STYLE
  5
685C5
330
685A2
100
AcDbSymbolTableRecord
100
AcDbTextStyleTableRecord
  2
STANDARD
 70
     0
 40
0.0
 41
1.0
 50
0.0
 71
     0
 42
0.2
  3
txt
  4

  0
STYLE
  5
685D9
330
685A2
100
AcDbSymbolTableRecord
100
AcDbTextStyleTableRecord
  2
STD
 70
     0
 40
0.0
 41
1.0
 50
0.0
 71
     0
 42
0.25
  3
txt
  4

  0
ENDTAB
  0
TABLE
  2
VIEW
  5
685A5
330
0
100
AcDbSymbolTable
 70
     2
  0
ENDTAB
  0
TABLE
  2
UCS
  5
685A6
330
0
100
AcDbSymbolTable
 70
     0
  0
ENDTAB
  0
TABLE
  2
APPID
  5
685A8
330
0
100
AcDbSymbolTable
 70
    22
  0
APPID
  5
685C6
330
685A8
100
AcDbSymbolTableRecord
100
AcDbRegAppTableRecord
  2
ACAD
 70
     0
  0
APPID
  5
685DE
330
685A8
100
AcDbSymbolTableRecord
100
AcDbRegAppTableRecord
  2
RAK
 70
     0
  0
APPID
  5
685DF
330
685A8
100
AcDbSymbolTableRecord
100
AcDbRegAppTableRecord
  2
DCO15
 70
     0
  0
APPID
  5
685E0
330
685A8
100
AcDbSymbolTableRecord
100
AcDbRegAppTableRecord
  2
ABNSLEADERTOOLS
 70
     0
  0
APPID
  5
685E1
330
685A8
100
AcDbSymbolTableRecord
100
AcDbRegAppTableRecord
  2
ACAD_PSEXT
 70
     0
  0
APPID
  5
685E2
330
685A8
100
AcDbSymbolTableRecord
100
AcDbRegAppTableRecord
  2
ACAD_DSTYLE_DIMTEXT_FILL
 70
     0
  0
APPID
  5
685E3
330
685A8
100
AcDbSymbolTableRecord
100
AcDbRegAppTableRecord
  2
ACAECLAYERSTANDARD
 70
     0
  0
APPID
  5
685E4
330
685A8
100
AcDbSymbolTableRecord
100
AcDbRegAppTableRecord
  2
ACDBBLOCKREPETAG
 70
     0
  0
APPID
  5
685E5
330
685A8
100
AcDbSymbolTableRecord
100
AcDbRegAppTableRecord
  2
ACLAYERTOOLS
 70
     0
  0
APPID
  5
685E6
330
685A8
100
AcDbSymbolTableRecord
100
AcDbRegAppTableRecord
  2
ACAD_DSTYLE_DIMJAG
 70
     0
  0
APPID
  5
685E7
330
685A8
100
AcDbSymbolTableRecord
100
AcDbRegAppTableRecord
  2
ACAD_DSTYLE_DIMBREAK
 70
     0
  0
APPID
  5
685E8
330
685A8
100
AcDbSymbolTableRecord
100
AcDbRegAppTableRecord
  2
ACADANNOTATIVE
 70
     0
  0
APPID
  5
685E9
330
685A8
100
AcDbSymbolTableRecord
100
AcDbRegAppTableRecord
  2
ACAD_DSTYLE_DIMTALN
 70
     0
  0
APPID
  5
685EA
330
685A8
100
AcDbSymbolTableRecord
100
AcDbRegAppTableRecord
  2
ACADANNOAV
 70
     0
  0
APPID
  5
685EB
330
685A8
100
AcDbSymbolTableRecord
100
AcDbRegAppTableRecord
  2
ACAD_MLEADERVER
 70
     0
  0
APPID
  5
685EC
330
685A8
100
AcDbSymbolTableRecord
100
AcDbRegAppTableRecord
  2
ACADANNOPO
 70
     0
  0
APPID
  5
685ED
330
685A8
100
AcDbSymbolTableRecord
100
AcDbRegAppTableRecord
  2
ACAD_DSTYLE_DIMRADIAL_EXTENSION
 70
     0
  0
APPID
  5
685EE
330
685A8
100
AcDbSymbolTableRecord
100
AcDbRegAppTableRecord
  2
ACDBDYNAMICBLOCKTRUENAME
 70
     0
  0
APPID
  5
685EF
330
685A8
100
AcDbSymbolTableRecord
100
AcDbRegAppTableRecord
  2
ACDBDYNAMICBLOCKGUID
 70
     0
  0
APPID
  5
685F0
330
685A8
100
AcDbSymbolTableRecord
100
AcDbRegAppTableRecord
  2
ACAUTHENVIRON
 70
     0
  0
APPID
  5
685F1
330
685A8
100
AcDbSymbolTableRecord
100
AcDbRegAppTableRecord
  2
ACDBBLOCKREPBTAG
 70
     0
  0
APPID
  5
685F2
330
685A8
100
AcDbSymbolTableRecord
100
AcDbRegAppTableRecord
  2
ACDBATTR
 70
     0
  0
ENDTAB
  0
TABLE
  2
DIMSTYLE
  5
685A9
330
0
100
AcDbSymbolTable
 70
     3
100
AcDbDimStyleTable
 71
     0
  0
DIMSTYLE
105
685F3
102
{ACAD_REACTORS
330
2FFD3
330
2FFE1
330
2FFEF
102
}
330
685A9
100
AcDbSymbolTableRecord
100
AcDbDimStyleTableRecord
  2
STANDARD
 70
     0
271
     6
272
     6
273
     5
277
     5
279
     2
340
685D9
  0
ENDTAB
  0
TABLE
  2
BLOCK_RECORD
  5
685A0
330
0
100
AcDbSymbolTable
 70
    51
  0
BLOCK_RECORD
  5
685D5
102
{ACAD_XDICTIONARY
360
686B4
102
}
330
685A0
100
AcDbSymbolTableRecord
100
AcDbBlockTableRecord
  2
*Model_Space
340
685D8
  0
BLOCK_RECORD
  5
685D1
330
685A0
100
AcDbSymbolTableRecord
100
AcDbBlockTableRecord
  2
*Paper_Space
340
685D4
  0
BLOCK_RECORD
  5
685FB
330
685A0
100
AcDbSymbolTableRecord
100
AcDbBlockTableRecord
  2
*D2
340
0
  0
BLOCK_RECORD
  5
685FD
330
685A0
100
AcDbSymbolTableRecord
100
AcDbBlockTableRecord
  2
*U3
340
0
102
{BLKREFS
331
2FFDB
102
}
  0
BLOCK_RECORD
  5
685FE
330
685A0
100
AcDbSymbolTableRecord
100
AcDbBlockTableRecord
  2
*D4
340
0
  0
BLOCK_RECORD
  5
68600
330
685A0
100
AcDbSymbolTableRecord
100
AcDbBlockTableRecord
  2
*U5
340
0
102
{BLKREFS
331
30003
102
}
  0
BLOCK_RECORD
  5
68601
330
685A0
100
AcDbSymbolTableRecord
100
AcDbBlockTableRecord
  2
*D6
340
0
  0
BLOCK_RECORD
  5
68603
330
685A0
100
AcDbSymbolTableRecord
100
AcDbBlockTableRecord
  2
*U7
340
0
102
{BLKREFS
331
2FFF7
102
}
  0
BLOCK_RECORD
  5
68650
330
685A0
100
AcDbSymbolTableRecord
100
AcDbBlockTableRecord
  2
*X46
340
0
102
{BLKREFS
331
2FF90
102
}
  0
BLOCK_RECORD
  5
68652
330
685A0
100
AcDbSymbolTableRecord
100
AcDbBlockTableRecord
  2
*X47
340
0
102
{BLKREFS
331
2FFD2
102
}
  0
BLOCK_RECORD
  5
6865E
330
685A0
100
AcDbSymbolTableRecord
100
AcDbBlockTableRecord
  2
*D48
340
0
  0
BLOCK_RECORD
  5
6866A
330
685A0
100
AcDbSymbolTableRecord
100
AcDbBlockTableRecord
  2
*D49
340
0
  0
BLOCK_RECORD
  5
68677
330
685A0
100
AcDbSymbolTableRecord
100
AcDbBlockTableRecord
  2
*D50
340
0
  0
ENDTAB
  0
ENDSEC
  0
SECTION
  2
BLOCKS
  0
BLOCK
  5
685D6
330
685D5
100
AcDbEntity
  8
0
100
AcDbBlockBegin
  2
*Model_Space
 70
     0
 10
0.0
 20
0.0
 30
0.0
  3
*Model_Space
  1

  0
ENDBLK
  5
685D7
330
685D5
100
AcDbEntity
  8
0
100
AcDbBlockEnd
  0
BLOCK
  5
685D2
330
685D1
100
AcDbEntity
 67
     1
  8
0
100
AcDbBlockBegin
  2
*Paper_Space
 70
     0
 10
0.0
 20
0.0
 30
0.0
  3
*Paper_Space
  1

  0
ENDBLK
  5
685D3
330
685D1
100
AcDbEntity
 67
     1
  8
0
100
AcDbBlockEnd
  0
BLOCK
  5
685FC
330
685FB
100
AcDbEntity
  8
0
100
AcDbBlockBegin
  2
*D2
 70
     1
 10
0.0
 20
0.0
 30
0.0
  3
*D2
  1

  0
LINE
  5
2FFD5
330
685FB
100
AcDbEntity
  8
DIM
 62
     3
100
AcDbLine
 10
4.636181323947752
 20
0.5682636411774145
 30
0.0
 11
4.636181323947752
 21
0.1273541655613469
 31
0.0
  0
LINE
  5
2FFD6
330
685FB
100
AcDbEntity
  8
DIM
 62
     3
100
AcDbLine
 10
5.704181323947753
 20
0.5682636411774145
 30
0.0
 11
5.704181323947753
 21
0.1273541655613469
 31
0.0
  0
LINE
  5
2FFD7
330
685FB
100
AcDbEntity
  8
DIM
 62
     2
100
AcDbLine
 10
4.511181323947752
 20
0.2673541655613469
 30
0.0
 11
4.386181323947752
 21
0.2673541655613469
 31
0.0
  0
LINE
  5
2FFD8
330
685FB
100
AcDbEntity
  8
DIM
 62
     2
100
AcDbLine
 10
5.829181323947753
 20
0.2673541655613469
 30
0.0
 11
5.954181323947753
 21
0.2673541655613469
 31
0.0
  0
SOLID
  5
2FFD9
330
685FB
100
AcDbEntity
  8
DIM
 62
     2
100
AcDbTrace
 10
4.511181323947752
 20
0.2881874988946803
 30
0.0
 11
4.511181323947752
 21
0.2465208322280136
 31
0.0
 12
4.636181323947752
 22
0.2673541655613469
 32
0.0
 13
4.636181323947752
 23
0.2673541655613469
 33
0.0
  0
SOLID
  5
2FFDA
330
685FB
100
AcDbEntity
  8
DIM
 62
     2
100
AcDbTrace
 10
5.829181323947753
 20
0.2881874988946803
 30
0.0
 11
5.829181323947753
 21
0.2465208322280136
 31
0.0
 12
5.704181323947753
 22
0.2673541655613469
 32
0.0
 13
5.704181323947753
 23
0.2673541655613469
 33
0.0
  0
INSERT
  5
2FFDB
330
685FB
100
AcDbEntity
  8
0
100
AcDbBlockReference
  2
*U3
 10
0.0
 20
0.0
 30
0.0
  0
POINT
  5
2FFDC
330
685FB
100
AcDbEntity
  8
DEFPOINTS
 62
     0
100
AcDbPoint
 10
4.636181323947752
 20
0.6382636411774146
 30
0.0
  0
POINT
  5
2FFDD
330
685FB
100
AcDbEntity
  8
DEFPOINTS
 62
     0
100
AcDbPoint
 10
5.704181323947753
 20
0.6382636411774146
 30
0.0
  0
POINT
  5
2FFDE
330
685FB
100
AcDbEntity
  8
DEFPOINTS
 62
     0
100
AcDbPoint
 10
5.704181323947753
 20
0.2673541655613469
 30
0.0
  0
ENDBLK
  5
2FFE0
330
685FB
100
AcDbEntity
  8
0
100
AcDbBlockEnd
  0
BLOCK
  5
68654
330
685FD
100
AcDbEntity
  8
0
100
AcDbBlockBegin
  2
*U3
 70
     1
 10
0.0
 20
0.0
 30
0.0
  3
*U3
  1

  0
TEXT
  5
68595
330
685FD
100
AcDbEntity
  8
DIM
100
AcDbText
 10
4.891020341683087
 20
0.2059199909365175
 30
0.0
 40
0.125
  1
1 1/16"
  7
STD
100
AcDbText
  0
ENDBLK
  5
68597
330
685FD
100
AcDbEntity
  8
0
100
AcDbBlockEnd
  0
BLOCK
  5
685FF
330
685FE
100
AcDbEntity
  8
0
100
AcDbBlockBegin
  2
*D4
 70
     1
 10
0.0
 20
0.0
 30
0.0
  3
*D4
  1

  0
LINE
  5
2FFFD
330
685FE
100
AcDbEntity
  8
DIM
 62
     3
100
AcDbLine
 10
4.566181323947752
 20
0.6382636411774146
 30
0.0
 11
3.067378950699703
 21
0.6382636411774151
 31
0.0
  0
LINE
  5
2FFFE
330
685FE
100
AcDbEntity
  8
DIM
 62
     3
100
AcDbLine
 10
5.037681323948313
 20
4.038263641177504
 30
0.0
 11
3.067378950699704
 21
4.038263641177504
 31
0.0
  0
LINE
  5
2FFFF
330
685FE
100
AcDbEntity
  8
DIM
 62
     2
100
AcDbLine
 10
3.207378950699705
 20
0.7632636411774151
 30
0.0
 11
3.207378950699705
 21
2.183589357412111
 31
0.0
  0
LINE
  5
30000
330
685FE
100
AcDbEntity
  8
DIM
 62
     2
100
AcDbLine
 10
3.207378950699705
 20
3.913263641177504
 30
0.0
 11
3.207378950699705
 21
2.492937924942808
 31
0.0
  0
SOLID
  5
30001
330
685FE
100
AcDbEntity
  8
DIM
 62
     2
100
AcDbTrace
 10
3.186545617366371
 20
0.7632636411774151
 30
0.0
 11
3.228212284033038
 21
0.7632636411774151
 31
0.0
 12
3.207378950699705
 22
0.6382636411774151
 32
0.0
 13
3.207378950699705
 23
0.6382636411774151
 33
0.0
  0
SOLID
  5
30002
330
685FE
100
AcDbEntity
  8
DIM
 62
     2
100
AcDbTrace
 10
3.186545617366372
 20
3.913263641177504
 30
0.0
 11
3.228212284033038
 21
3.913263641177504
 31
0.0
 12
3.207378950699705
 22
4.038263641177504
 32
0.0
 13
3.207378950699705
 23
4.038263641177504
 33
0.0
  0
INSERT
  5
30003
330
685FE
100
AcDbEntity
  8
0
100
AcDbBlockReference
  2
*U5
 10
0.0
 20
0.0
 30
0.0
  0
POINT
  5
30004
330
685FE
100
AcDbEntity
  8
DEFPOINTS
 62
     0
100
AcDbPoint
 10
4.636181323947752
 20
0.6382636411774146
 30
0.0
  0
POINT
  5
30005
330
685FE
100
AcDbEntity
  8
DEFPOINTS
 62
     0
100
AcDbPoint
 10
5.107681323948313
 20
4.038263641177504
 30
0.0
  0
POINT
  5
30006
330
685FE
100
AcDbEntity
  8
DEFPOINTS
 62
     0
100
AcDbPoint
 10
3.207378950699705
 20
4.038263641177504
 30
0.0
  0
ENDBLK
  5
2FFEE
330
685FE
100
AcDbEntity
  8
0
100
AcDbBlockEnd
  0
BLOCK
  5
68656
330
68600
100
AcDbEntity
  8
0
100
AcDbBlockBegin
  2
*U5
 70
     1
 10
0.0
 20
0.0
 30
0.0
  3
*U5
  1

  0
TEXT
  5
6859D
330
68600
100
AcDbEntity
  8
DIM
100
AcDbText
 10
2.885499687398203
 20
2.276872099567638
 30
0.0
 40
0.125
  1
3 13/32"
  7
STD
100
AcDbText
  0
ENDBLK
  5
6859F
330
68600
100
AcDbEntity
  8
0
100
AcDbBlockEnd
  0
BLOCK
  5
68602
330
68601
100
AcDbEntity
  8
0
100
AcDbBlockBegin
  2
*D6
 70
     1
 10
0.0
 20
0.0
 30
0.0
  3
*D6
  1

  0
LINE
  5
2FFF1
330
68601
100
AcDbEntity
  8
DIM
 62
     3
100
AcDbLine
 10
4.566181323947752
 20
0.6382636411774146
 30
0.0
 11
3.913167488962253
 21
0.6382636411774146
 31
0.0
  0
LINE
  5
2FFF2
330
68601
100
AcDbEntity
  8
DIM
 62
     3
100
AcDbLine
 10
4.566181323947752
 20
2.638263641177414
 30
0.0
 11
3.913167488962255
 21
2.638263641177414
 31
0.0
  0
LINE
  5
2FFF3
330
68601
100
AcDbEntity
  8
DIM
 62
     2
100
AcDbLine
 10
4.053167488962253
 20
0.7632636411774146
 30
0.0
 11
4.053167488962253
 21
1.485507843087372
 31
0.0
  0
LINE
  5
2FFF4
330
68601
100
AcDbEntity
  8
DIM
 62
     2
100
AcDbLine
 10
4.053167488962254
 20
2.513263641177414
 30
0.0
 11
4.053167488962253
 21
1.791019439267454
 31
0.0
  0
SOLID
  5
2FFF5
330
68601
100
AcDbEntity
  8
DIM
 62
     2
100
AcDbTrace
 10
4.03233415562892
 20
0.7632636411774146
 30
0.0
 11
4.074000822295587
 21
0.7632636411774146
 31
0.0
 12
4.053167488962253
 22
0.6382636411774146
 32
0.0
 13
4.053167488962253
 23
0.6382636411774146
 33
0.0
  0
SOLID
  5
2FFF6
330
68601
100
AcDbEntity
  8
DIM
 62
     2
100
AcDbTrace
 10
4.032334155628921
 20
2.513263641177414
 30
0.0
 11
4.074000822295587
 21
2.513263641177414
 31
0.0
 12
4.053167488962254
 22
2.638263641177414
 32
0.0
 13
4.053167488962254
 23
2.638263641177414
 33
0.0
  0
INSERT
  5
2FFF7
330
68601
100
AcDbEntity
  8
0
100
AcDbBlockReference
  2
*U7
 10
0.0
 20
0.0
 30
0.0
  0
POINT
  5
2FFF8
330
68601
100
AcDbEntity
  8
DEFPOINTS
 62
     0
100
AcDbPoint
 10
4.636181323947752
 20
0.6382636411774146
 30
0.0
  0
POINT
  5
2FFF9
330
68601
100
AcDbEntity
  8
DEFPOINTS
 62
     0
100
AcDbPoint
 10
4.636181323947752
 20
2.638263641177414
 30
0.0
  0
POINT
  5
2FFFA
330
68601
100
AcDbEntity
  8
DEFPOINTS
 62
     0
100
AcDbPoint
 10
4.053167488962254
 20
2.638263641177414
 30
0.0
  0
ENDBLK
  5
2FFFC
330
68601
100
AcDbEntity
  8
0
100
AcDbBlockEnd
  0
BLOCK
  5
68655
330
68603
100
AcDbEntity
  8
0
100
AcDbBlockBegin
  2
*U7
 70
     1
 10
0.0
 20
0.0
 30
0.0
  3
*U7
  1

  0
TEXT
  5
68599
330
68603
100
AcDbEntity
  8
DIM
100
AcDbText
 10
3.975149071499771
 20
1.575763641177414
 30
0.0
 40
0.125
  1
2"
  7
STD
100
AcDbText
  0
ENDBLK
  5
6859B
330
68603
100
AcDbEntity
  8
0
100
AcDbBlockEnd
  0
BLOCK
  5
68651
330
68650
100
AcDbEntity
  8
0
100
AcDbBlockBegin
  2
*X46
 70
     1
 10
0.0
 20
0.0
 30
0.0
  3
*X46
  1

  0
LINE
  5
684E3
330
68650
100
AcDbEntity
  8
0
 62
     0
100
AcDbLine
 10
5.631855808868651
 20
2.538263641177505
 30
0.0
 11
5.632431323948315
 21
2.53883915625717
 31
0.0
  0
LINE
  5
684E4
330
68650
100
AcDbEntity
  8
0
 62
     0
100
AcDbLine
 10
5.543467461220331
 20
2.538263641177505
 30
0.0
 11
5.593467461220332
 21
2.588263641177504
 31
0.0
  0
LINE
  5
684E5
330
68650
100
AcDbEntity
  8
0
 62
     0
100
AcDbLine
 10
5.455079113572013
 20
2.538263641177505
 30
0.0
 11
5.505079113572014
 21
2.588263641177504
 31
0.0
  0
LINE
  5
684E6
330
68650
100
AcDbEntity
  8
0
 62
     0
100
AcDbLine
 10
5.366690765923696
 20
2.538263641177505
 30
0.0
 11
5.416690765923696
 21
2.588263641177504
 31
0.0
  0
LINE
  5
684E7
330
68650
100
AcDbEntity
  8
0
 62
     0
100
AcDbLine
 10
5.278302418275377
 20
2.538263641177505
 30
0.0
 11
5.328302418275376
 21
2.588263641177504
 31
0.0
  0
LINE
  5
684E8
330
68650
100
AcDbEntity
  8
0
 62
     0
100
AcDbLine
 10
5.189914070627058
 20
2.538263641177505
 30
0.0
 11
5.239914070627058
 21
2.588263641177504
 31
0.0
  0
LINE
  5
684E9
330
68650
100
AcDbEntity
  8
0
 62
     0
100
AcDbLine
 10
5.101525722978739
 20
2.538263641177505
 30
0.0
 11
5.192681323948312
 21
2.629419242147076
 31
0.0
  0
LINE
  5
684EA
330
68650
100
AcDbEntity
  8
0
 62
     0
100
AcDbLine
 10
5.147681323948316
 20
2.672807589795399
 30
0.0
 11
5.192681323948312
 21
2.717807589795394
 31
0.0
  0
LINE
  5
684EB
330
68650
100
AcDbEntity
  8
0
 62
     0
100
AcDbLine
 10
5.013137375330422
 20
2.538263641177505
 30
0.0
 11
5.063137375330422
 21
2.588263641177506
 31
0.0
  0
LINE
  5
684EC
330
68650
100
AcDbEntity
  8
0
 62
     0
100
AcDbLine
 10
5.147681323948316
 20
2.761195937443718
 30
0.0
 11
5.192681323948312
 21
2.806195937443714
 31
0.0
  0
LINE
  5
684ED
330
68650
100
AcDbEntity
  8
0
 62
     0
100
AcDbLine
 10
4.924749027682103
 20
2.538263641177505
 30
0.0
 11
4.974749027682103
 21
2.588263641177506
 31
0.0
  0
LINE
  5
684EE
330
68650
100
AcDbEntity
  8
0
 62
     0
100
AcDbLine
 10
5.147681323948316
 20
2.849584285092036
 30
0.0
 11
5.192681323948312
 21
2.894584285092031
 31
0.0
  0
LINE
  5
684EF
330
68650
100
AcDbEntity
  8
0
 62
     0
100
AcDbLine
 10
4.836360680033784
 20
2.538263641177505
 30
0.0
 11
4.886360680033784
 21
2.588263641177504
 31
0.0
  0
LINE
  5
684F0
330
68650
100
AcDbEntity
  8
0
 62
     0
100
AcDbLine
 10
5.147681323948316
 20
2.937972632740354
 30
0.0
 11
5.192681323948312
 21
2.982972632740351
 31
0.0
  0
LINE
  5
684F1
330
68650
100
AcDbEntity
  8
0
 62
     0
100
AcDbLine
 10
4.747972332385466
 20
2.538263641177505
 30
0.0
 11
4.797972332385467
 21
2.588263641177504
 31
0.0
  0
LINE
  5
684F2
330
68650
100
AcDbEntity
  8
0
 62
     0
100
AcDbLine
 10
5.147681323948316
 20
3.026360980388674
 30
0.0
 11
5.192681323948312
 21
3.07136098038867
 31
0.0
  0
LINE
  5
684F3
330
68650
100
AcDbEntity
  8
0
 62
     0
100
AcDbLine
 10
4.707931323948318
 20
2.586610980388674
 30
0.0
 11
4.709583984737148
 21
2.588263641177504
 31
0.0
  0
LINE
  5
684F4
330
68650
100
AcDbEntity
  8
0
 62
     0
100
AcDbLine
 10
5.147681323948316
 20
3.114749328036992
 30
0.0
 11
5.192681323948313
 21
3.15974932803699
 31
0.0
  0
LINE
  5
684F5
330
68650
100
AcDbEntity
  8
0
 62
     0
100
AcDbLine
 10
5.147681323948316
 20
3.203137675685311
 30
0.0
 11
5.192681323948314
 21
3.248137675685308
 31
0.0
  0
LINE
  5
684F6
330
68650
100
AcDbEntity
  8
0
 62
     0
100
AcDbLine
 10
5.147681323948316
 20
3.291526023333628
 30
0.0
 11
5.192681323948314
 21
3.336526023333628
 31
0.0
  0
LINE
  5
684F7
330
68650
100
AcDbEntity
  8
0
 62
     0
100
AcDbLine
 10
5.147681323948315
 20
3.379914370981945
 30
0.0
 11
5.192681323948315
 21
3.424914370981947
 31
0.0
  0
LINE
  5
684F8
330
68650
100
AcDbEntity
  8
0
 62
     0
100
AcDbLine
 10
5.147681323948315
 20
3.468302718630264
 30
0.0
 11
5.192681323948316
 21
3.513302718630265
 31
0.0
  0
LINE
  5
684F9
330
68650
100
AcDbEntity
  8
0
 62
     0
100
AcDbLine
 10
5.147681323948315
 20
3.556691066278583
 30
0.0
 11
5.192681323948318
 21
3.601691066278585
 31
0.0
  0
LINE
  5
684FA
330
68650
100
AcDbEntity
  8
0
 62
     0
100
AcDbLine
 10
5.147681323948315
 20
3.645079413926901
 30
0.0
 11
5.192681323948318
 21
3.690079413926904
 31
0.0
  0
LINE
  5
684FB
330
68650
100
AcDbEntity
  8
0
 62
     0
100
AcDbLine
 10
5.147681323948314
 20
3.733467761575219
 30
0.0
 11
5.192681323948319
 21
3.778467761575221
 31
0.0
  0
LINE
  5
684FC
330
68650
100
AcDbEntity
  8
0
 62
     0
100
AcDbLine
 10
5.147681323948315
 20
3.821856109223538
 30
0.0
 11
5.232681323948312
 21
3.906856109223534
 31
0.0
  0
LINE
  5
684FD
330
68650
100
AcDbEntity
  8
0
 62
     0
100
AcDbLine
 10
5.107681323948318
 20
3.870244456871859
 30
0.0
 11
5.232681323948313
 21
3.995244456871855
 31
0.0
  0
LINE
  5
684FE
330
68650
100
AcDbEntity
  8
0
 62
     0
100
AcDbLine
 10
5.107681323948315
 20
3.958632804520174
 30
0.0
 11
5.187312160605644
 21
4.038263641177503
 31
0.0
  0
ENDBLK
  5
68500
330
68650
100
AcDbEntity
  8
0
100
AcDbBlockEnd
  0
BLOCK
  5
68653
330
68652
100
AcDbEntity
  8
0
100
AcDbBlockBegin
  2
*X47
 70
     1
 10
0.0
 20
0.0
 30
0.0
  3
*X47
  1

  0
LINE
  5
68502
330
68652
100
AcDbEntity
  8
0
 62
     0
100
AcDbLine
 10
5.704181323947753
 20
2.604323354994178
 30
0.0
 11
5.670241037764536
 21
2.638263641177398
 31
0.0
  0
LINE
  5
68503
330
68652
100
AcDbEntity
  8
0
 62
     0
100
AcDbLine
 10
5.704181323947753
 20
2.56012918117002
 30
0.0
 11
5.636344791024833
 21
2.627965714092939
 31
0.0
  0
LINE
  5
68504
330
68652
100
AcDbEntity
  8
0
 62
     0
100
AcDbLine
 10
5.631852690116107
 20
2.588263641177506
 30
0.0
 11
5.608326807519577
 21
2.611789523774036
 31
0.0
  0
LINE
  5
68505
330
68652
100
AcDbEntity
  8
0
 62
     0
100
AcDbLine
 10
5.704181323947753
 20
2.51593500734586
 30
0.0
 11
5.654181323947748
 21
2.565935007345863
 31
0.0
  0
LINE
  5
68506
330
68652
100
AcDbEntity
  8
0
 62
     0
100
AcDbLine
 10
5.587658516291948
 20
2.588263641177504
 30
0.0
 11
5.581400012154255
 21
2.594522145315198
 31
0.0
  0
LINE
  5
68507
330
68652
100
AcDbEntity
  8
0
 62
     0
100
AcDbLine
 10
5.704181323947753
 20
2.471740833521701
 30
0.0
 11
5.650158516292045
 21
2.525763641177407
 31
0.0
  0
LINE
  5
68508
330
68652
100
AcDbEntity
  8
0
 62
     0
100
AcDbLine
 10
5.704181323947753
 20
2.427546659697541
 30
0.0
 11
5.605964342467887
 21
2.525763641177408
 31
0.0
  0
LINE
  5
68509
330
68652
100
AcDbEntity
  8
0
 62
     0
100
AcDbLine
 10
5.611770168643738
 20
2.475763641177398
 30
0.0
 11
5.561770168643728
 21
2.525763641177408
 31
0.0
  0
LINE
  5
6850A
330
68652
100
AcDbEntity
  8
0
 62
     0
100
AcDbLine
 10
5.704181323947753
 20
2.383352485873383
 30
0.0
 11
5.654181323947749
 21
2.433352485873387
 31
0.0
  0
LINE
  5
6850B
330
68652
100
AcDbEntity
  8
0
 62
     0
100
AcDbLine
 10
5.56757599481958
 20
2.475763641177396
 30
0.0
 11
5.5341813239478
 21
2.509158312049176
 31
0.0
  0
LINE
  5
6850C
330
68652
100
AcDbEntity
  8
0
 62
     0
100
AcDbLine
 10
5.704181323947753
 20
2.339158312049224
 30
0.0
 11
5.630075994819581
 21
2.413263641177396
 31
0.0
  0
LINE
  5
6850D
330
68652
100
AcDbEntity
  8
0
 62
     0
100
AcDbLine
 10
5.63588182099542
 20
2.363263641177396
 30
0.0
 11
5.58588182099542
 21
2.413263641177396
 31
0.0
  0
LINE
  5
6850E
330
68652
100
AcDbEntity
  8
0
 62
     0
100
AcDbLine
 10
5.704181323947753
 20
2.294964138225064
 30
0.0
 11
5.654181323947691
 21
2.344964138225126
 31
0.0
  0
LINE
  5
6850F
330
68652
100
AcDbEntity
  8
0
 62
     0
100
AcDbLine
 10
5.59168764717126
 20
2.363263641177396
 30
0.0
 11
5.547934485559596
 21
2.407016802789061
 31
0.0
  0
LINE
  5
68510
330
68652
100
AcDbEntity
  8
0
 62
     0
100
AcDbLine
 10
5.704181323947753
 20
2.250769964400904
 30
0.0
 11
5.654181323947692
 21
2.300769964400966
 31
0.0
  0
LINE
  5
68511
330
68652
100
AcDbEntity
  8
0
 62
     0
100
AcDbLine
 10
5.58418132394788
 20
2.326575790576618
 30
0.0
 11
5.5341813239479
 21
2.376575790576597
 31
0.0
  0
LINE
  5
68512
330
68652
100
AcDbEntity
  8
0
 62
     0
100
AcDbLine
 10
5.704181323947753
 20
2.206575790576745
 30
0.0
 11
5.654181323947692
 21
2.256575790576806
 31
0.0
  0
LINE
  5
68513
330
68652
100
AcDbEntity
  8
0
 62
     0
100
AcDbLine
 10
5.573299299522933
 20
2.293263641177407
 30
0.0
 11
5.534181323947889
 21
2.332381616752448
 31
0.0
  0
LINE
  5
68514
330
68652
100
AcDbEntity
  8
0
 62
     0
100
AcDbLine
 10
5.704181323947753
 20
2.162381616752587
 30
0.0
 11
5.654181323947692
 21
2.212381616752645
 31
0.0
  0
LINE
  5
68515
330
68652
100
AcDbEntity
  8
0
 62
     0
100
AcDbLine
 10
5.704181323947753
 20
2.118187442928428
 30
0.0
 11
5.654181323947693
 21
2.168187442928485
 31
0.0
  0
LINE
  5
68516
330
68652
100
AcDbEntity
  8
0
 62
     0
100
AcDbLine
 10
5.584181323947856
 20
2.193993269104165
 30
0.0
 11
5.576910951874625
 21
2.201263641177396
 31
0.0
  0
LINE
  5
68517
330
68652
100
AcDbEntity
  8
0
 62
     0
100
AcDbLine
 10
5.704181323947753
 20
2.073993269104268
 30
0.0
 11
5.626910951874624
 21
2.151263641177396
 31
0.0
  0
LINE
  5
68518
330
68652
100
AcDbEntity
  8
0
 62
     0
100
AcDbLine
 10
5.704181323947753
 20
2.02979909528011
 30
0.0
 11
5.534181323947857
 21
2.199799095280004
 31
0.0
  0
LINE
  5
68519
330
68652
100
AcDbEntity
  8
0
 62
     0
100
AcDbLine
 10
5.588522604226305
 20
2.101263641177396
 30
0.0
 11
5.534181323947881
 21
2.15560492145582
 31
0.0
  0
LINE
  5
6851A
330
68652
100
AcDbEntity
  8
0
 62
     0
100
AcDbLine
 10
5.704181323947753
 20
1.985604921455949
 30
0.0
 11
5.626181323947639
 21
2.063604921456064
 31
0.0
  0
LINE
  5
6851B
330
68652
100
AcDbEntity
  8
0
 62
     0
100
AcDbLine
 10
5.544328430402146
 20
2.101263641177396
 30
0.0
 11
5.534181323947905
 21
2.111410747631636
 31
0.0
  0
LINE
  5
6851C
330
68652
100
AcDbEntity
  8
0
 62
     0
100
AcDbLine
 10
5.704181323947753
 20
1.94141074763179
 30
0.0
 11
5.626181323947641
 21
2.0194107476319
 31
0.0
  0
LINE
  5
6851D
330
68652
100
AcDbEntity
  8
0
 62
     0
100
AcDbLine
 10
5.704181323947752
 20
1.897216573807632
 30
0.0
 11
5.626181323947646
 21
1.975216573807738
 31
0.0
  0
LINE
  5
6851E
330
68652
100
AcDbEntity
  8
0
 62
     0
100
AcDbLine
 10
5.704181323947753
 20
1.853022399983473
 30
0.0
 11
5.626181323947649
 21
1.931022399983574
 31
0.0
  0
LINE
  5
6851F
330
68652
100
AcDbEntity
  8
0
 62
     0
100
AcDbLine
 10
5.704181323947753
 20
1.808828226159312
 30
0.0
 11
5.626181323947655
 21
1.886828226159412
 31
0.0
  0
LINE
  5
68520
330
68652
100
AcDbEntity
  8
0
 62
     0
100
AcDbLine
 10
5.704181323947753
 20
1.764634052335154
 30
0.0
 11
5.626181323947657
 21
1.842634052335247
 31
0.0
  0
LINE
  5
68521
330
68652
100
AcDbEntity
  8
0
 62
     0
100
AcDbLine
 10
5.704181323947753
 20
1.720439878510994
 30
0.0
 11
5.626181323947663
 21
1.798439878511085
 31
0.0
  0
LINE
  5
68522
330
68652
100
AcDbEntity
  8
0
 62
     0
100
AcDbLine
 10
5.704181323947752
 20
1.676245704686835
 30
0.0
 11
5.626181323947665
 21
1.754245704686921
 31
0.0
  0
LINE
  5
68523
330
68652
100
AcDbEntity
  8
0
 62
     0
100
AcDbLine
 10
4.747969213632993
 20
2.588263641177436
 30
0.0
 11
4.714071770400128
 21
2.622161084410301
 31
0.0
  0
LINE
  5
68524
330
68652
100
AcDbEntity
  8
0
 62
     0
100
AcDbLine
 10
5.704181323947752
 20
1.632051530862677
 30
0.0
 11
5.626181323947671
 21
1.710051530862759
 31
0.0
  0
LINE
  5
68525
330
68652
100
AcDbEntity
  8
0
 62
     0
100
AcDbLine
 10
4.806181323947678
 20
2.48585735703859
 30
0.0
 11
4.766275039808862
 21
2.525763641177408
 31
0.0
  0
LINE
  5
68526
330
68652
100
AcDbEntity
  8
0
 62
     0
100
AcDbLine
 10
4.703775039808854
 20
2.588263641177416
 30
0.0
 11
4.653775039808865
 21
2.638263641177406
 31
0.0
  0
LINE
  5
68527
330
68652
100
AcDbEntity
  8
0
 62
     0
100
AcDbLine
 10
5.704181323947752
 20
1.587857357038517
 30
0.0
 11
5.626181323947673
 21
1.665857357038595
 31
0.0
  0
LINE
  5
68528
330
68652
100
AcDbEntity
  8
0
 62
     0
100
AcDbLine
 10
4.772080865984714
 20
2.475763641177398
 30
0.0
 11
4.722080865984703
 21
2.525763641177408
 31
0.0
  0
LINE
  5
68529
330
68652
100
AcDbEntity
  8
0
 62
     0
100
AcDbLine
 10
4.686181323947756
 20
2.561663183214355
 30
0.0
 11
4.636181323947752
 21
2.611663183214357
 31
0.0
  0
LINE
  5
6852A
330
68652
100
AcDbEntity
  8
0
 62
     0
100
AcDbLine
 10
5.704181323947753
 20
1.543663183214357
 30
0.0
 11
5.626181323947679
 21
1.621663183214431
 31
0.0
  0
LINE
  5
6852B
330
68652
100
AcDbEntity
  8
0
 62
     0
100
AcDbLine
 10
4.727886692160555
 20
2.475763641177396
 30
0.0
 11
4.636181323947751
 21
2.567469009390198
 31
0.0
  0
LINE
  5
6852C
330
68652
100
AcDbEntity
  8
0
 62
     0
100
AcDbLine
 10
5.704181323947753
 20
1.499469009390198
 30
0.0
 11
5.626181323947681
 21
1.577469009390268
 31
0.0
  0
LINE
  5
6852D
330
68652
100
AcDbEntity
  8
0
 62
     0
100
AcDbLine
 10
4.806181323947609
 20
2.353274835566183
 30
0.0
 11
4.746192518336393
 21
2.413263641177398
 31
0.0
  0
LINE
  5
6852E
330
68652
100
AcDbEntity
  8
0
 62
     0
100
AcDbLine
 10
4.686181323947755
 20
2.473274835566036
 30
0.0
 11
4.636181323947752
 21
2.52327483556604
 31
0.0
  0
LINE
  5
6852F
330
68652
100
AcDbEntity
  8
0
 62
     0
100
AcDbLine
 10
5.704181323947752
 20
1.45527483556604
 30
0.0
 11
5.626181323947687
 21
1.533274835566106
 31
0.0
  0
LINE
  5
68530
330
68652
100
AcDbEntity
  8
0
 62
     0
100
AcDbLine
 10
4.751998344512236
 20
2.363263641177396
 30
0.0
 11
4.701998344512237
 21
2.413263641177396
 31
0.0
  0
LINE
  5
68531
330
68652
100
AcDbEntity
  8
0
 62
     0
100
AcDbLine
 10
4.806181323947621
 20
2.309080661742012
 30
0.0
 11
4.756181323947624
 21
2.359080661742008
 31
0.0
  0
LINE
  5
68532
330
68652
100
AcDbEntity
  8
0
 62
     0
100
AcDbLine
 10
4.686181323947756
 20
2.429080661741878
 30
0.0
 11
4.636181323947752
 21
2.47908066174188
 31
0.0
  0
LINE
  5
68533
330
68652
100
AcDbEntity
  8
0
 62
     0
100
AcDbLine
 10
5.704181323947752
 20
1.41108066174188
 30
0.0
 11
5.626181323947689
 21
1.489080661741942
 31
0.0
  0
LINE
  5
68534
330
68652
100
AcDbEntity
  8
0
 62
     0
100
AcDbLine
 10
4.777804170688057
 20
2.293263641177416
 30
0.0
 11
4.756181323947624
 21
2.31488648791785
 31
0.0
  0
LINE
  5
68535
330
68652
100
AcDbEntity
  8
0
 62
     0
100
AcDbLine
 10
4.707804170688078
 20
2.363263641177396
 30
0.0
 11
4.636181323947751
 21
2.43488648791772
 31
0.0
  0
LINE
  5
68536
330
68652
100
AcDbEntity
  8
0
 62
     0
100
AcDbLine
 10
5.704181323947752
 20
1.366886487917721
 30
0.0
 11
5.626181323947694
 21
1.444886487917779
 31
0.0
  0
LINE
  5
68537
330
68652
100
AcDbEntity
  8
0
 62
     0
100
AcDbLine
 10
4.686181323947813
 20
2.3406923140935
 30
0.0
 11
4.636181323947752
 21
2.390692314093561
 31
0.0
  0
LINE
  5
68538
330
68652
100
AcDbEntity
  8
0
 62
     0
100
AcDbLine
 10
5.704181323947752
 20
1.322692314093562
 30
0.0
 11
5.626181323947697
 21
1.400692314093616
 31
0.0
  0
LINE
  5
68539
330
68652
100
AcDbEntity
  8
0
 62
     0
100
AcDbLine
 10
4.806181323947636
 20
2.17649814026952
 30
0.0
 11
4.781415823039758
 21
2.201263641177396
 31
0.0
  0
LINE
  5
6853A
330
68652
100
AcDbEntity
  8
0
 62
     0
100
AcDbLine
 10
4.686181323947812
 20
2.296498140269342
 30
0.0
 11
4.636181323947751
 21
2.346498140269403
 31
0.0
  0
LINE
  5
6853B
330
68652
100
AcDbEntity
  8
0
 62
     0
100
AcDbLine
 10
5.704181323947753
 20
1.278498140269402
 30
0.0
 11
5.626181323947703
 21
1.356498140269452
 31
0.0
  0
LINE
  5
6853C
330
68652
100
AcDbEntity
  8
0
 62
     0
100
AcDbLine
 10
4.806181323947611
 20
2.132303966445384
 30
0.0
 11
4.756181323947649
 21
2.182303966445346
 31
0.0
  0
LINE
  5
6853D
330
68652
100
AcDbEntity
  8
0
 62
     0
100
AcDbLine
 10
4.686181323947812
 20
2.252303966445183
 30
0.0
 11
4.636181323947751
 21
2.302303966445244
 31
0.0
  0
LINE
  5
6853E
330
68652
100
AcDbEntity
  8
0
 62
     0
100
AcDbLine
 10
5.704181323947752
 20
1.234303966445243
 30
0.0
 11
5.626181323947705
 21
1.31230396644529
 31
0.0
  0
LINE
  5
6853F
330
68652
100
AcDbEntity
  8
0
 62
     0
100
AcDbLine
 10
4.79302747539144
 20
2.101263641177396
 30
0.0
 11
4.743027475391438
 21
2.151263641177398
 31
0.0
  0
LINE
  5
68540
330
68652
100
AcDbEntity
  8
0
 62
     0
100
AcDbLine
 10
4.686181323947812
 20
2.208109792621025
 30
0.0
 11
4.636181323947752
 21
2.258109792621084
 31
0.0
  0
LINE
  5
68541
330
68652
100
AcDbEntity
  8
0
 62
     0
100
AcDbLine
 10
5.704181323947752
 20
1.190109792621085
 30
0.0
 11
5.626181323947711
 21
1.268109792621125
 31
0.0
  0
LINE
  5
68542
330
68652
100
AcDbEntity
  8
0
 62
     0
100
AcDbLine
 10
4.74883330156728
 20
2.101263641177396
 30
0.0
 11
4.698833301567281
 21
2.151263641177396
 31
0.0
  0
LINE
  5
68543
330
68652
100
AcDbEntity
  8
0
 62
     0
100
AcDbLine
 10
4.686181323947811
 20
2.163915618796866
 30
0.0
 11
4.636181323947751
 21
2.213915618796924
 31
0.0
  0
LINE
  5
68544
330
68652
100
AcDbEntity
  8
0
 62
     0
100
AcDbLine
 10
5.704181323947752
 20
1.145915618796925
 30
0.0
 11
5.626181323947714
 21
1.223915618796963
 31
0.0
  0
LINE
  5
68545
330
68652
100
AcDbEntity
  8
0
 62
     0
100
AcDbLine
 10
4.714181323947871
 20
2.091721444972647
 30
0.0
 11
4.636181323947752
 21
2.169721444972766
 31
0.0
  0
LINE
  5
68546
330
68652
100
AcDbEntity
  8
0
 62
     0
100
AcDbLine
 10
5.704181323947753
 20
1.101721444972765
 30
0.0
 11
5.626181323947719
 21
1.179721444972799
 31
0.0
  0
LINE
  5
68547
330
68652
100
AcDbEntity
  8
0
 62
     0
100
AcDbLine
 10
4.714181323947865
 20
2.047527271148492
 30
0.0
 11
4.636181323947752
 21
2.125527271148607
 31
0.0
  0
LINE
  5
68548
330
68652
100
AcDbEntity
  8
0
 62
     0
100
AcDbLine
 10
5.704181323947753
 20
1.057527271148607
 30
0.0
 11
5.626181323947721
 21
1.135527271148637
 31
0.0
  0
LINE
  5
68549
330
68652
100
AcDbEntity
  8
0
 62
     0
100
AcDbLine
 10
4.714181323947863
 20
2.003333097324336
 30
0.0
 11
4.636181323947751
 21
2.081333097324446
 31
0.0
  0
LINE
  5
6854A
330
68652
100
AcDbEntity
  8
0
 62
     0
100
AcDbLine
 10
5.704181323947752
 20
1.013333097324446
 30
0.0
 11
5.626181323947727
 21
1.091333097324473
 31
0.0
  0
LINE
  5
6854B
330
68652
100
AcDbEntity
  8
0
 62
     0
100
AcDbLine
 10
4.714181323947857
 20
1.959138923500183
 30
0.0
 11
4.636181323947752
 21
2.037138923500287
 31
0.0
  0
LINE
  5
6854C
330
68652
100
AcDbEntity
  8
0
 62
     0
100
AcDbLine
 10
5.704181323947753
 20
0.9691389235002889
 30
0.0
 11
5.626181323947729
 21
1.047138923500311
 31
0.0
  0
LINE
  5
6854D
330
68652
100
AcDbEntity
  8
0
 62
     0
100
AcDbLine
 10
4.714181323947855
 20
1.914944749676027
 30
0.0
 11
4.636181323947752
 21
1.992944749676129
 31
0.0
  0
LINE
  5
6854E
330
68652
100
AcDbEntity
  8
0
 62
     0
100
AcDbLine
 10
5.704181323947752
 20
0.9249447496761295
 30
0.0
 11
5.626181323947735
 21
1.002944749676146
 31
0.0
  0
LINE
  5
6854F
330
68652
100
AcDbEntity
  8
0
 62
     0
100
AcDbLine
 10
4.714181323947849
 20
1.870750575851872
 30
0.0
 11
4.636181323947752
 21
1.948750575851969
 31
0.0
  0
LINE
  5
68550
330
68652
100
AcDbEntity
  8
0
 62
     0
100
AcDbLine
 10
5.704181323947753
 20
0.8807505758519699
 30
0.0
 11
5.626181323947737
 21
0.9587505758519839
 31
0.0
  0
LINE
  5
68551
330
68652
100
AcDbEntity
  8
0
 62
     0
100
AcDbLine
 10
4.714181323947846
 20
1.826556402027716
 30
0.0
 11
4.636181323947752
 21
1.904556402027811
 31
0.0
  0
LINE
  5
68552
330
68652
100
AcDbEntity
  8
0
 62
     0
100
AcDbLine
 10
5.704181323947752
 20
0.8365564020278114
 30
0.0
 11
5.626181323947743
 21
0.9145564020278207
 31
0.0
  0
LINE
  5
68553
330
68652
100
AcDbEntity
  8
0
 62
     0
100
AcDbLine
 10
4.71418132394784
 20
1.782362228203561
 30
0.0
 11
4.636181323947751
 21
1.86036222820365
 31
0.0
  0
LINE
  5
68554
330
68652
100
AcDbEntity
  8
0
 62
     0
100
AcDbLine
 10
5.704181323947752
 20
0.7923622282036518
 30
0.0
 11
5.626181323947745
 21
0.8703622282036578
 31
0.0
  0
LINE
  5
68555
330
68652
100
AcDbEntity
  8
0
 62
     0
100
AcDbLine
 10
4.714181323947838
 20
1.738168054379406
 30
0.0
 11
4.636181323947752
 21
1.816168054379491
 31
0.0
  0
LINE
  5
68556
330
68652
100
AcDbEntity
  8
0
 62
     0
100
AcDbLine
 10
5.704181323947753
 20
0.7481680543794928
 30
0.0
 11
5.626181323947751
 21
0.8261680543794941
 31
0.0
  0
LINE
  5
68557
330
68652
100
AcDbEntity
  8
0
 62
     0
100
AcDbLine
 10
4.714181323947832
 20
1.693973880555251
 30
0.0
 11
4.636181323947752
 21
1.771973880555332
 31
0.0
  0
LINE
  5
68558
330
68652
100
AcDbEntity
  8
0
 62
     0
100
AcDbLine
 10
5.704181323947752
 20
0.7039738805553335
 30
0.0
 11
5.626181323947753
 21
0.7819738805553316
 31
0.0
  0
LINE
  5
68559
330
68652
100
AcDbEntity
  8
0
 62
     0
100
AcDbLine
 10
4.71418132394783
 20
1.649779706731097
 30
0.0
 11
4.636181323947752
 21
1.727779706731173
 31
0.0
  0
LINE
  5
6855A
330
68652
100
AcDbEntity
  8
0
 62
     0
100
AcDbLine
 10
5.704181323947753
 20
0.6597797067311744
 30
0.0
 11
5.62618132394776
 21
0.737779706731168
 31
0.0
  0
LINE
  5
6855B
330
68652
100
AcDbEntity
  8
0
 62
     0
100
AcDbLine
 10
5.504181323947844
 20
0.8155855329069224
 30
0.0
 11
5.491003215677353
 21
0.8287636411774151
 31
0.0
  0
LINE
  5
6855C
330
68652
100
AcDbEntity
  8
0
 62
     0
100
AcDbLine
 10
4.714181323947825
 20
1.605585532906941
 30
0.0
 11
4.636181323947751
 21
1.683585532907015
 31
0.0
  0
LINE
  5
6855D
330
68652
100
AcDbEntity
  8
0
 62
     0
100
AcDbLine
 10
5.681503215677353
 20
0.6382636411774141
 30
0.0
 11
5.603503215677353
 21
0.7162636411774149
 31
0.0
  0
LINE
  5
6855E
330
68652
100
AcDbEntity
  8
0
 62
     0
100
AcDbLine
 10
5.496809041853193
 20
0.7787636411774144
 30
0.0
 11
5.446809041853193
 21
0.8287636411774141
 31
0.0
  0
LINE
  5
6855F
330
68652
100
AcDbEntity
  8
0
 62
     0
100
AcDbLine
 10
4.714181323947822
 20
1.561391359082785
 30
0.0
 11
4.636181323947752
 21
1.639391359082855
 31
0.0
  0
LINE
  5
68560
330
68652
100
AcDbEntity
  8
0
 62
     0
100
AcDbLine
 10
5.637309041853193
 20
0.6382636411774138
 30
0.0
 11
5.559309041853192
 21
0.7162636411774144
 31
0.0
  0
LINE
  5
68561
330
68652
100
AcDbEntity
  8
0
 62
     0
100
AcDbLine
 10
5.452614868029034
 20
0.7787636411774141
 30
0.0
 11
5.402614868029035
 21
0.8287636411774146
 31
0.0
  0
LINE
  5
68562
330
68652
100
AcDbEntity
  8
0
 62
     0
100
AcDbLine
 10
4.714181323947816
 20
1.51719718525863
 30
0.0
 11
4.636181323947752
 21
1.595197185258695
 31
0.0
  0
LINE
  5
68563
330
68652
100
AcDbEntity
  8
0
 62
     0
100
AcDbLine
 10
5.593114868029035
 20
0.6382636411774141
 30
0.0
 11
5.515114868029033
 21
0.7162636411774149
 31
0.0
  0
LINE
  5
68564
330
68652
100
AcDbEntity
  8
0
 62
     0
100
AcDbLine
 10
5.442181323947846
 20
0.745003011434442
 30
0.0
 11
5.358420694204874
 21
0.8287636411774141
 31
0.0
  0
LINE
  5
68565
330
68652
100
AcDbEntity
  8
0
 62
     0
100
AcDbLine
 10
4.714181323947814
 20
1.473003011434476
 30
0.0
 11
4.636181323947751
 21
1.551003011434536
 31
0.0
  0
LINE
  5
68566
330
68652
100
AcDbEntity
  8
0
 62
     0
100
AcDbLine
 10
5.548920694204875
 20
0.6382636411774138
 30
0.0
 11
5.470920694204876
 21
0.7162636411774144
 31
0.0
  0
LINE
  5
68567
330
68652
100
AcDbEntity
  8
0
 62
     0
100
AcDbLine
 10
5.364226520380715
 20
0.7787636411774149
 30
0.0
 11
5.330181323947847
 21
0.8128088376102827
 31
0.0
  0
LINE
  5
68568
330
68652
100
AcDbEntity
  8
0
 62
     0
100
AcDbLine
 10
4.714181323947809
 20
1.42880883761032
 30
0.0
 11
4.636181323947752
 21
1.506808837610378
 31
0.0
  0
LINE
  5
68569
330
68652
100
AcDbEntity
  8
0
 62
     0
100
AcDbLine
 10
5.504726520380716
 20
0.6382636411774141
 30
0.0
 11
5.392181323947847
 21
0.7508088376102835
 31
0.0
  0
LINE
  5
6856A
330
68652
100
AcDbEntity
  8
0
 62
     0
100
AcDbLine
 10
4.714181323947804
 20
1.384614663786166
 30
0.0
 11
4.636181323947751
 21
1.462614663786219
 31
0.0
  0
LINE
  5
6856B
330
68652
100
AcDbEntity
  8
0
 62
     0
100
AcDbLine
 10
5.460532346556556
 20
0.6382636411774146
 30
0.0
 11
5.382532346556557
 21
0.7162636411774149
 31
0.0
  0
LINE
  5
6856C
330
68652
100
AcDbEntity
  8
0
 62
     0
100
AcDbLine
 10
4.7141813239478
 20
1.34042048996201
 30
0.0
 11
4.636181323947751
 21
1.418420489962058
 31
0.0
  0
LINE
  5
6856D
330
68652
100
AcDbEntity
  8
0
 62
     0
100
AcDbLine
 10
5.416338172732397
 20
0.6382636411774138
 30
0.0
 11
5.338338172732396
 21
0.7162636411774144
 31
0.0
  0
LINE
  5
6856E
330
68652
100
AcDbEntity
  8
0
 62
     0
100
AcDbLine
 10
4.714181323947796
 20
1.296226316137856
 30
0.0
 11
4.636181323947752
 21
1.374226316137899
 31
0.0
  0
LINE
  5
6856F
330
68652
100
AcDbEntity
  8
0
 62
     0
100
AcDbLine
 10
5.372143998908239
 20
0.6382636411774141
 30
0.0
 11
5.294143998908237
 21
0.7162636411774149
 31
0.0
  0
LINE
  5
68570
330
68652
100
AcDbEntity
  8
0
 62
     0
100
AcDbLine
 10
4.714181323947792
 20
1.252032142313699
 30
0.0
 11
4.636181323947751
 21
1.33003214231374
 31
0.0
  0
LINE
  5
68571
330
68652
100
AcDbEntity
  8
0
 62
     0
100
AcDbLine
 10
5.327949825084079
 20
0.6382636411774146
 30
0.0
 11
5.249949825084079
 21
0.7162636411774149
 31
0.0
  0
LINE
  5
68572
330
68652
100
AcDbEntity
  8
0
 62
     0
100
AcDbLine
 10
4.714181323947788
 20
1.207837968489545
 30
0.0
 11
4.636181323947752
 21
1.285837968489581
 31
0.0
  0
LINE
  5
68573
330
68652
100
AcDbEntity
  8
0
 62
     0
100
AcDbLine
 10
5.28375565125992
 20
0.6382636411774141
 30
0.0
 11
5.205755651259919
 21
0.7162636411774149
 31
0.0
  0
LINE
  5
68574
330
68652
100
AcDbEntity
  8
0
 62
     0
100
AcDbLine
 10
4.714181323947784
 20
1.163643794665389
 30
0.0
 11
4.636181323947751
 21
1.241643794665422
 31
0.0
  0
LINE
  5
68575
330
68652
100
AcDbEntity
  8
0
 62
     0
100
AcDbLine
 10
5.239561477435761
 20
0.6382636411774141
 30
0.0
 11
5.16156147743576
 21
0.7162636411774149
 31
0.0
  0
LINE
  5
68576
330
68652
100
AcDbEntity
  8
0
 62
     0
100
AcDbLine
 10
5.010181323947657
 20
0.8234496208413585
 30
0.0
 11
5.004867303611601
 21
0.8287636411774141
 31
0.0
  0
LINE
  5
68577
330
68652
100
AcDbEntity
  8
0
 62
     0
100
AcDbLine
 10
4.71418132394778
 20
1.119449620841233
 30
0.0
 11
4.636181323947751
 21
1.197449620841263
 31
0.0
  0
LINE
  5
68578
330
68652
100
AcDbEntity
  8
0
 62
     0
100
AcDbLine
 10
5.195367303611601
 20
0.6382636411774146
 30
0.0
 11
5.117367303611601
 21
0.7162636411774149
 31
0.0
  0
LINE
  5
68579
330
68652
100
AcDbEntity
  8
0
 62
     0
100
AcDbLine
 10
5.010181323947657
 20
0.7792554470171999
 30
0.0
 11
4.960673129787441
 21
0.8287636411774146
 31
0.0
  0
LINE
  5
6857A
330
68652
100
AcDbEntity
  8
0
 62
     0
100
AcDbLine
 10
4.714181323947777
 20
1.075255447017079
 30
0.0
 11
4.636181323947751
 21
1.153255447017103
 31
0.0
  0
LINE
  5
6857B
330
68652
100
AcDbEntity
  8
0
 62
     0
100
AcDbLine
 10
5.151173129787443
 20
0.6382636411774141
 30
0.0
 11
5.07317312978744
 21
0.7162636411774153
 31
0.0
  0
LINE
  5
6857C
330
68652
100
AcDbEntity
  8
0
 62
     0
100
AcDbLine
 10
4.966478955963284
 20
0.7787636411774144
 30
0.0
 11
4.916478955963283
 21
0.8287636411774146
 31
0.0
  0
LINE
  5
6857D
330
68652
100
AcDbEntity
  8
0
 62
     0
100
AcDbLine
 10
4.714181323947772
 20
1.031061273192924
 30
0.0
 11
4.636181323947751
 21
1.109061273192945
 31
0.0
  0
LINE
  5
6857E
330
68652
100
AcDbEntity
  8
0
 62
     0
100
AcDbLine
 10
5.106978955963283
 20
0.6382636411774146
 30
0.0
 11
5.028978955963283
 21
0.7162636411774149
 31
0.0
  0
LINE
  5
6857F
330
68652
100
AcDbEntity
  8
0
 62
     0
100
AcDbLine
 10
4.948181323947657
 20
0.7528670993688804
 30
0.0
 11
4.872284782139123
 21
0.8287636411774146
 31
0.0
  0
LINE
  5
68580
330
68652
100
AcDbEntity
  8
0
 62
     0
100
AcDbLine
 10
4.714181323947769
 20
0.9868670993687691
 30
0.0
 11
4.636181323947751
 21
1.064867099368786
 31
0.0
  0
LINE
  5
68581
330
68652
100
AcDbEntity
  8
0
 62
     0
100
AcDbLine
 10
5.062784782139124
 20
0.6382636411774141
 30
0.0
 11
4.984784782139123
 21
0.7162636411774153
 31
0.0
  0
LINE
  5
68582
330
68652
100
AcDbEntity
  8
0
 62
     0
100
AcDbLine
 10
4.878090608314963
 20
0.7787636411774144
 30
0.0
 11
4.836181323947658
 21
0.82067292554472
 31
0.0
  0
LINE
  5
68583
330
68652
100
AcDbEntity
  8
0
 62
     0
100
AcDbLine
 10
4.714181323947764
 20
0.9426729255446144
 30
0.0
 11
4.636181323947751
 21
1.020672925544626
 31
0.0
  0
LINE
  5
68584
330
68652
100
AcDbEntity
  8
0
 62
     0
100
AcDbLine
 10
5.018590608314966
 20
0.6382636411774141
 30
0.0
 11
4.898181323947657
 21
0.7586729255447221
 31
0.0
  0
LINE
  5
68585
330
68652
100
AcDbEntity
  8
0
 62
     0
100
AcDbLine
 10
4.714181323947761
 20
0.8984787517204589
 30
0.0
 11
4.636181323947751
 21
0.9764787517204675
 31
0.0
  0
LINE
  5
68586
330
68652
100
AcDbEntity
  8
0
 62
     0
100
AcDbLine
 10
4.974396434490805
 20
0.6382636411774146
 30
0.0
 11
4.896396434490804
 21
0.7162636411774144
 31
0.0
  0
LINE
  5
68587
330
68652
100
AcDbEntity
  8
0
 62
     0
100
AcDbLine
 10
4.714181323947756
 20
0.8542845778963037
 30
0.0
 11
4.636181323947751
 21
0.9322845778963085
 31
0.0
  0
LINE
  5
68588
330
68652
100
AcDbEntity
  8
0
 62
     0
100
AcDbLine
 10
4.930202260666646
 20
0.6382636411774141
 30
0.0
 11
4.852202260666645
 21
0.7162636411774149
 31
0.0
  0
LINE
  5
68589
330
68652
100
AcDbEntity
  8
0
 62
     0
100
AcDbLine
 10
4.714181323947753
 20
0.8100904040721486
 30
0.0
 11
4.636181323947751
 21
0.8880904040721496
 31
0.0
  0
LINE
  5
6858A
330
68652
100
AcDbEntity
  8
0
 62
     0
100
AcDbLine
 10
4.886008086842487
 20
0.6382636411774146
 30
0.0
 11
4.808008086842487
 21
0.7162636411774144
 31
0.0
  0
LINE
  5
6858B
330
68652
100
AcDbEntity
  8
0
 62
     0
100
AcDbLine
 10
4.714181323947748
 20
0.7658962302479937
 30
0.0
 11
4.636181323947751
 21
0.8438962302479906
 31
0.0
  0
LINE
  5
6858C
330
68652
100
AcDbEntity
  8
0
 62
     0
100
AcDbLine
 10
4.841813913018327
 20
0.6382636411774146
 30
0.0
 11
4.763813913018328
 21
0.7162636411774149
 31
0.0
  0
LINE
  5
6858D
330
68652
100
AcDbEntity
  8
0
 62
     0
100
AcDbLine
 10
4.714181323947745
 20
0.7217020564238382
 30
0.0
 11
4.636181323947751
 21
0.7997020564238311
 31
0.0
  0
LINE
  5
6858E
330
68652
100
AcDbEntity
  8
0
 62
     0
100
AcDbLine
 10
4.797619739194169
 20
0.6382636411774141
 30
0.0
 11
4.719619739194168
 21
0.7162636411774144
 31
0.0
  0
LINE
  5
6858F
330
68652
100
AcDbEntity
  8
0
 62
     0
100
AcDbLine
 10
4.753425565370009
 20
0.6382636411774146
 30
0.0
 11
4.636181323947751
 21
0.7555078825996718
 31
0.0
  0
LINE
  5
68590
330
68652
100
AcDbEntity
  8
0
 62
     0
100
AcDbLine
 10
4.709231391545849
 20
0.6382636411774146
 30
0.0
 11
4.636181323947751
 21
0.7113137087755128
 31
0.0
  0
LINE
  5
68591
330
68652
100
AcDbEntity
  8
0
 62
     0
100
AcDbLine
 10
4.665037217721691
 20
0.6382636411774146
 30
0.0
 11
4.636181323947751
 21
0.6671195349513535
 31
0.0
  0
ENDBLK
  5
68593
330
68652
100
AcDbEntity
  8
0
100
AcDbBlockEnd
  0
BLOCK
  5
68668
330
6865E
100
AcDbEntity
  8
0
100
AcDbBlockBegin
  2
*D48
 70
     1
 10
0.0
 20
0.0
 30
0.0
  3
*D48
  1

  0
LINE
  5
68684
330
6865E
100
AcDbEntity
  8
DIM
 62
     0
370
    -2
100
AcDbLine
 10
4.636181323947752
 20
0.5757636411774146
 30
0.0
 11
4.636181323947752
 21
0.0873541655613469
 31
0.0
  0
LINE
  5
68685
330
6865E
100
AcDbEntity
  8
DIM
 62
     0
370
    -2
100
AcDbLine
 10
5.704181323947753
 20
0.5757636411774146
 30
0.0
 11
5.704181323947753
 21
0.0873541655613469
 31
0.0
  0
LINE
  5
68686
330
6865E
100
AcDbEntity
  8
DIM
 62
     0
370
    -2
100
AcDbLine
 10
4.816181323947752
 20
0.2673541655613469
 30
0.0
 11
5.524181323947753
 21
0.2673541655613469
 31
0.0
  0
MTEXT
  5
68687
330
6865E
100
AcDbEntity
  8
DIM
 62
     0
100
AcDbMText
 10
5.170181323947753
 20
-0.797645834438653
 30
0.0
 40
0.18
 41
0.0
 71
     5
 72
     1
  1
\A1;1{\H1.000000x;\S1/16;}
  7
STD
 73
     1
 44
1.0
1001
ACAD
1000
MTEXTBEGIN
1070
    73
1070
     1
1070
    44
1040
1.0
1070
    74
1070
     0
1000
MTEXTEND
  0
SOLID
  5
68688
330
6865E
100
AcDbEntity
  8
DIM
 62
     0
100
AcDbTrace
 10
4.816181323947752
 20
0.2973541655613468
 30
0.0
 11
4.816181323947752
 21
0.2373541655613469
 31
0.0
 12
4.636181323947752
 22
0.2673541655613469
 32
0.0
 13
4.636181323947752
 23
0.2673541655613469
 33
0.0
  0
SOLID
  5
68689
330
6865E
100
AcDbEntity
  8
DIM
 62
     0
100
AcDbTrace
 10
5.524181323947753
 20
0.2973541655613468
 30
0.0
 11
5.524181323947753
 21
0.2373541655613469
 31
0.0
 12
5.704181323947753
 22
0.2673541655613469
 32
0.0
 13
5.704181323947753
 23
0.2673541655613469
 33
0.0
  0
POINT
  5
6868A
330
6865E
100
AcDbEntity
  8
DEFPOINTS
 62
     0
100
AcDbPoint
 10
4.636181323947752
 20
0.6382636411774146
 30
0.0
  0
POINT
  5
6868B
330
6865E
100
AcDbEntity
  8
DEFPOINTS
 62
     0
100
AcDbPoint
 10
5.704181323947753
 20
0.6382636411774146
 30
0.0
  0
POINT
  5
6868C
330
6865E
100
AcDbEntity
  8
DEFPOINTS
 62
     0
100
AcDbPoint
 10
5.704181323947753
 20
0.2673541655613469
 30
0.0
  0
ENDBLK
  5
68669
330
6865E
100
AcDbEntity
  8
0
100
AcDbBlockEnd
  0
BLOCK
  5
68675
330
6866A
100
AcDbEntity
  8
0
100
AcDbBlockBegin
  2
*D49
 70
     1
 10
0.0
 20
0.0
 30
0.0
  3
*D49
  1

  0
LINE
  5
6868D
330
6866A
100
AcDbEntity
  8
DIM
 62
     0
370
    -2
100
AcDbLine
 10
4.573681323947752
 20
0.6382636411774146
 30
0.0
 11
3.027378950699704
 21
0.6382636411774151
 31
0.0
  0
LINE
  5
6868E
330
6866A
100
AcDbEntity
  8
DIM
 62
     0
370
    -2
100
AcDbLine
 10
5.045181323948313
 20
4.038263641177504
 30
0.0
 11
3.027378950699704
 21
4.038263641177504
 31
0.0
  0
LINE
  5
6868F
330
6866A
100
AcDbEntity
  8
DIM
 62
     0
370
    -2
100
AcDbLine
 10
3.207378950699704
 20
0.8182636411774151
 30
0.0
 11
3.207378950699704
 21
2.038263641177459
 31
0.0
  0
LINE
  5
68690
330
6866A
100
AcDbEntity
  8
DIM
 62
     0
370
    -2
100
AcDbLine
 10
3.207378950699705
 20
3.858263641177504
 30
0.0
 11
3.207378950699704
 21
2.638263641177459
 31
0.0
  0
SOLID
  5
68691
330
6866A
100
AcDbEntity
  8
DIM
 62
     0
100
AcDbTrace
 10
3.177378950699704
 20
0.8182636411774151
 30
0.0
 11
3.237378950699703
 21
0.8182636411774151
 31
0.0
 12
3.207378950699704
 22
0.6382636411774151
 32
0.0
 13
3.207378950699704
 23
0.6382636411774151
 33
0.0
  0
SOLID
  5
68692
330
6866A
100
AcDbEntity
  8
DIM
 62
     0
100
AcDbTrace
 10
3.177378950699705
 20
3.858263641177504
 30
0.0
 11
3.237378950699704
 21
3.858263641177504
 31
0.0
 12
3.207378950699705
 22
4.038263641177504
 32
0.0
 13
3.207378950699705
 23
4.038263641177504
 33
0.0
  0
MTEXT
  5
68693
330
6866A
100
AcDbEntity
  8
DIM
 62
     0
100
AcDbMText
 10
3.207378950699704
 20
2.33826364117746
 30
0.0
 40
0.18
 41
0.0
 71
     5
 72
     1
  1
\A1;3{\H1.000000x;\S13/32;}
  7
STD
 73
     1
 44
1.0
1001
ACAD
1000
MTEXTBEGIN
1070
    73
1070
     1
1070
    44
1040
1.0
1070
    74
1070
     0
1000
MTEXTEND
  0
POINT
  5
68694
330
6866A
100
AcDbEntity
  8
DEFPOINTS
 62
     0
100
AcDbPoint
 10
4.636181323947752
 20
0.6382636411774146
 30
0.0
  0
POINT
  5
68695
330
6866A
100
AcDbEntity
  8
DEFPOINTS
 62
     0
100
AcDbPoint
 10
5.107681323948313
 20
4.038263641177504
 30
0.0
  0
POINT
  5
68696
330
6866A
100
AcDbEntity
  8
DEFPOINTS
 62
     0
100
AcDbPoint
 10
3.207378950699705
 20
4.038263641177504
 30
0.0
  0
ENDBLK
  5
68676
330
6866A
100
AcDbEntity
  8
0
100
AcDbBlockEnd
  0
BLOCK
  5
68682
330
68677
100
AcDbEntity
  8
0
100
AcDbBlockBegin
  2
*D50
 70
     1
 10
0.0
 20
0.0
 30
0.0
  3
*D50
  1

  0
LINE
  5
68697
330
68677
100
AcDbEntity
  8
DIM
 62
     0
370
    -2
100
AcDbLine
 10
4.573681323947752
 20
0.6382636411774146
 30
0.0
 11
3.873167488962254
 21
0.6382636411774147
 31
0.0
  0
LINE
  5
68698
330
68677
100
AcDbEntity
  8
DIM
 62
     0
370
    -2
100
AcDbLine
 10
4.573681323947752
 20
2.638263641177414
 30
0.0
 11
3.873167488962254
 21
2.638263641177414
 31
0.0
  0
LINE
  5
68699
330
68677
100
AcDbEntity
  8
DIM
 62
     0
370
    -2
100
AcDbLine
 10
4.053167488962253
 20
0.8182636411774147
 30
0.0
 11
4.053167488962253
 21
1.458263641177414
 31
0.0
  0
LINE
  5
6869A
330
68677
100
AcDbEntity
  8
DIM
 62
     0
370
    -2
100
AcDbLine
 10
4.053167488962254
 20
2.458263641177413
 30
0.0
 11
4.053167488962253
 21
1.818263641177414
 31
0.0
  0
SOLID
  5
6869B
330
68677
100
AcDbEntity
  8
DIM
 62
     0
100
AcDbTrace
 10
4.023167488962253
 20
0.8182636411774147
 30
0.0
 11
4.083167488962254
 21
0.8182636411774147
 31
0.0
 12
4.053167488962253
 22
0.6382636411774147
 32
0.0
 13
4.053167488962253
 23
0.6382636411774147
 33
0.0
  0
SOLID
  5
6869C
330
68677
100
AcDbEntity
  8
DIM
 62
     0
100
AcDbTrace
 10
4.023167488962254
 20
2.458263641177413
 30
0.0
 11
4.083167488962255
 21
2.458263641177413
 31
0.0
 12
4.053167488962254
 22
2.638263641177414
 32
0.0
 13
4.053167488962254
 23
2.638263641177414
 33
0.0
  0
MTEXT
  5
6869D
330
68677
100
AcDbEntity
  8
DIM
 62
     0
100
AcDbMText
 10
4.053167488962253
 20
1.638263641177414
 30
0.0
 40
0.18
 41
0.0
 71
     5
 72
     1
  1
\A1;2
  7
STD
 73
     1
 44
1.0
1001
ACAD
1000
MTEXTBEGIN
1070
    73
1070
     1
1070
    44
1040
1.0
1070
    74
1070
     0
1000
MTEXTEND
  0
POINT
  5
6869E
330
68677
100
AcDbEntity
  8
DEFPOINTS
 62
     0
100
AcDbPoint
 10
4.636181323947752
 20
0.6382636411774146
 30
0.0
  0
POINT
  5
6869F
330
68677
100
AcDbEntity
  8
DEFPOINTS
 62
     0
100
AcDbPoint
 10
4.636181323947752
 20
2.638263641177414
 30
0.0
  0
POINT
  5
686A0
330
68677
100
AcDbEntity
  8
DEFPOINTS
 62
     0
100
AcDbPoint
 10
4.053167488962254
 20
2.638263641177414
 30
0.0
  0
ENDBLK
  5
68683
330
68677
100
AcDbEntity
  8
0
100
AcDbBlockEnd
  0
ENDSEC
  0
SECTION
  2
ENTITIES
  0
INSERT
  5
2FF90
330
685D5
100
AcDbEntity
  8
HATCH
  6
Continuous
100
AcDbBlockReference
  2
*X46
 10
0.0
 20
0.0
 30
0.0
1001
ACAD
1000
HATCH
1002
{
1070
    19
1000
ANSI31
1040
0.5
1040
0.0
1000
ASC_BOUNDS
1070
     1
1070
     1
1070
     1
1005
2FF68
1000
ASC_SEEDPOINT
1011
5.167657704488065
1021
3.074990844360987
1031
0.0
1000
R14_HATCH_DATA
1000
2FF90
1011
1.0
1021
0.0
1031
0.0
1011
0.0
1021
1.0
1031
0.0
1011
0.0
1021
0.0
1031
1.0
1040
0.0
1010
0.0
1020
0.0
1030
1.0
1000
ANSI31
1070
     0
1070
     1
1071
        1
1071
        7
1070
     0
1070
     1
1071
       12
1040
5.192681323948319
1040
3.850263641177504
1040
5.232681323948311
1040
3.850263641177504
1040
5.232681323948313
1040
4.038263641177504
1040
5.107681323948313
1040
4.038263641177504
1040
5.107681323948318
1040
3.850263641177505
1040
5.147681323948315
1040
3.850263641177504
1040
5.147681323948316
1040
2.588263641177504
1040
4.707931323948318
1040
2.588263641177506
1040
4.707931323948316
1040
2.538263641177505
1040
5.632431323948315
1040
2.538263641177505
1040
5.632431323948315
1040
2.588263641177504
1040
5.192681323948311
1040
2.588263641177504
1071
        1
1005
2FF68
1070
     0
1070
     1
1040
0.0
1040
0.5
1070
     0
1070
     1
1040
0.7853981633974483
1040
0.0
1040
0.0
1040
-0.0441941738241592
1040
0.0441941738241592
1070
     0
1040
0.0048306326559147
1071
        1
1040
5.167657704488065
1040
3.074990844360987
1040
0.0
1002
}
  0
INSERT
  5
2FFD2
330
685D5
100
AcDbEntity
  8
HATCH
  6
Continuous
100
AcDbBlockReference
  2
*X47
 10
0.0
 20
0.0
 30
0.0
1001
ACAD
1000
HATCH
1002
{
1070
    19
1000
ANSI31
1040
0.25
1040
1.570796326794895
1000
ASC_BOUNDS
1070
     1
1070
     1
1070
     2
1005
2FF68
1005
2FF67
1000
ASC_SEEDPOINT
1011
5.667637681893233
1021
1.526588303410514
1031
0.0
1000
R14_HATCH_DATA
1000
2FFD2
1011
1.0
1021
0.0
1031
0.0
1011
0.0
1021
1.0
1031
0.0
1011
0.0
1021
0.0
1031
1.0
1040
0.0
1010
0.0
1020
0.0
1030
1.0
1000
ANSI31
1070
     0
1070
     1
1071
        1
1071
        7
1070
     1
1070
     1
1071
       65
1040
5.704181323947753
1040
2.638263641177414
1040
0.0
1040
5.654181323947748
1040
2.63826364117739
1040
0.0
1040
5.583739037607204
1040
2.59759376819636
1040
0.7673269879590034
1040
5.586239037607204
1040
2.588263641177506
1040
0.0
1040
5.632431323948314
1040
2.588263641177506
1040
0.0
1040
5.654181323947749
1040
2.588263641177408
1040
0.0
1040
5.654181323947749
1040
2.525763641177408
1040
0.0
1040
5.534181323947779
1040
2.525763641177408
1040
0.0
1040
5.534181323947837
1040
2.475763641177396
1040
0.0
1040
5.654181323947749
1040
2.475763641177396
1040
0.0
1040
5.654181323947748
1040
2.413263641177396
1040
0.0
1040
5.554181323947937
1040
2.413263641177396
1040
0.0
1040
5.534181323947905
1040
2.39326364117738
1040
0.0
1040
5.534181323947881
1040
2.293263641177441
1040
0.0
1040
5.58418132394788
1040
2.293263641177397
1040
0.0
1040
5.58418132394788
1040
2.363263641177396
1040
0.0
1040
5.654181323947691
1040
2.363263641177396
1040
0.0
1040
5.654181323947694
1040
2.151263641177396
1040
0.0
1040
5.584181323947856
1040
2.151263641177396
1040
0.0
1040
5.584181323947856
1040
2.201263641177396
1040
0.0
1040
5.534181323947857
1040
2.201263641177396
1040
0.0
1040
5.534181323947913
1040
2.101263641177396
1040
0.0
1040
5.626181323947634
1040
2.101263641177396
1040
0.0
1040
5.62618132394776
1040
0.7162636411774149
1040
0.0
1040
5.442181323947846
1040
0.7162636411774145
1040
0.0
1040
5.442181323947848
1040
0.7787636411774145
1040
0.0
1040
5.504181323947846
1040
0.7787636411774143
1040
0.0
1040
5.504181323947844
1040
0.8287636411774148
1040
0.0
1040
5.330181323947847
1040
0.8287636411774141
1040
0.0
1040
5.330181323947846
1040
0.7787636411774148
1040
0.0
1040
5.392181323947847
1040
0.7787636411774148
1040
0.0
1040
5.392181323947847
1040
0.7162636411774148
1040
0.0
1040
4.948181323947657
1040
0.7162636411774148
1040
0.0
1040
4.948181323947657
1040
0.7787636411774148
1040
0.0
1040
5.010181323947657
1040
0.7787636411774149
1040
0.0
1040
5.010181323947657
1040
0.8287636411774144
1040
0.0
1040
4.836181323947658
1040
0.8287636411774146
1040
0.0
1040
4.836181323947659
1040
0.7787636411774143
1040
0.0
1040
4.898181323947657
1040
0.7787636411774148
1040
0.0
1040
4.898181323947657
1040
0.7162636411774148
1040
0.0
1040
4.714181323947745
1040
0.7162636411774148
1040
0.0
1040
4.714181323947871
1040
2.101263641177395
1040
0.0
1040
4.806181323947593
1040
2.101263641177396
1040
0.0
1040
4.806181323947649
1040
2.201263641177396
1040
0.0
1040
4.756181323947649
1040
2.201263641177396
1040
0.0
1040
4.756181323947649
1040
2.151263641177396
1040
0.0
1040
4.686181323947811
1040
2.151263641177396
1040
0.0
1040
4.686181323947813
1040
2.363263641177396
1040
0.0
1040
4.756181323947624
1040
2.363263641177396
1040
0.0
1040
4.756181323947624
1040
2.293263641177397
1040
0.0
1040
4.806181323947623
1040
2.293263641177443
1040
0.0
1040
4.806181323947599
1040
2.39326364117738
1040
0.0
1040
4.786181323947569
1040
2.413263641177398
1040
0.0
1040
4.686181323947756
1040
2.413263641177396
1040
0.0
1040
4.686181323947756
1040
2.475763641177396
1040
0.0
1040
4.806181323947668
1040
2.475763641177396
1040
0.0
1040
4.806181323947725
1040
2.525763641177408
1040
0.0
1040
4.686181323947756
1040
2.525763641177408
1040
0.0
1040
4.686181323947756
1040
2.588263641177408
1040
0.0
1040
4.754123610288304
1040
2.588263641177437
1040
0.7673269879788803
1040
4.756623610288301
1040
2.59759376819636
1040
0.0
1040
4.686181323947755
1040
2.63826364117739
1040
0.0
1040
4.636181323947752
1040
2.638263641177414
1040
0.0
1040
4.636181323947752
1040
0.6382636411774146
1040
0.0
1040
5.704181323947753
1040
0.6382636411774146
1040
0.0
1071
        2
1005
2FF67
1005
2FF68
1070
     0
1070
     1
1040
1.570796326794895
1040
0.25
1070
     0
1070
     1
1040
2.356194490192343
1040
0.0
1040
0.0
1040
-0.0220970869120796
1040
-0.0220970869120796
1070
     0
1040
0.0042536889119384
1071
        1
1040
5.667637681893233
1040
1.526588303410514
1040
0.0
1002
}
  0
DIMENSION
  5
2FFD3
330
685D5
100
AcDbEntity
  8
DIM
100
AcDbDimension
  2
*D48
 10
5.704181323947753
 20
0.2673541655613469
 30
0.0
 11
5.170181323947753
 21
-0.797645834438653
 31
0.0
 70
    32
 71
     5
 42
1.068
  3
STANDARD
100
AcDbAlignedDimension
 13
4.636181323947752
 23
0.6382636411774146
 33
0.0
 14
5.704181323947753
 24
0.6382636411774146
 34
0.0
100
AcDbRotatedDimension
  0
DIMENSION
  5
2FFE1
330
685D5
100
AcDbEntity
  8
DIM
100
AcDbDimension
  2
*D49
 10
3.207378950699705
 20
4.038263641177504
 30
0.0
 11
3.207378950699704
 21
2.33826364117746
 31
0.0
 70
    32
 71
     5
 42
3.40000000000009
  3
STANDARD
100
AcDbAlignedDimension
 13
4.636181323947752
 23
0.6382636411774146
 33
0.0
 14
5.107681323948313
 24
4.038263641177504
 34
0.0
 50
90.0
100
AcDbRotatedDimension
1001
ACAD
1000
DSTYLE
1002
{
1070
   271
1070
     5
1002
}
  0
DIMENSION
  5
2FFEF
330
685D5
100
AcDbEntity
  8
DIM
100
AcDbDimension
  2
*D50
 10
4.053167488962254
 20
2.638263641177414
 30
0.0
 11
4.053167488962253
 21
1.638263641177414
 31
0.0
 70
    32
 71
     5
 42
1.999999999999999
  3
STANDARD
100
AcDbAlignedDimension
 13
4.636181323947752
 23
0.6382636411774146
 33
0.0
 14
4.636181323947752
 24
2.638263641177414
 34
0.0
 50
90.0
100
AcDbRotatedDimension
  0
LWPOLYLINE
  5
686F6
330
685D5
100
AcDbEntity
  8
0
100
AcDbPolyline
 90
       64
 70
     1
 43
0.0
 10
4.836181323947659
 20
0.7787636411774141
 10
4.836181323947659
 20
0.8287636411774148
 10
5.010181323947657
 20
0.8287636411774144
 10
5.010181323947657
 20
0.7787636411774148
 10
4.948181323947657
 20
0.7787636411774148
 10
4.948181323947657
 20
0.7162636411774148
 10
5.392181323947847
 20
0.7162636411774148
 10
5.392181323947847
 20
0.7787636411774148
 10
5.330181323947847
 20
0.7787636411774148
 10
5.330181323947847
 20
0.8287636411774144
 10
5.504181323947846
 20
0.8287636411774148
 10
5.504181323947846
 20
0.7787636411774141
 10
5.442181323947847
 20
0.7787636411774148
 10
5.442181323947847
 20
0.7162636411774148
 10
5.62618132394776
 20
0.7162636411774148
 10
5.626181323947634
 20
2.101263641177396
 10
5.534181323947913
 20
2.101263641177396
 10
5.534181323947856
 20
2.201263641177396
 10
5.584181323947856
 20
2.201263641177396
 10
5.584181323947856
 20
2.151263641177396
 10
5.654181323947694
 20
2.151263641177396
 10
5.654181323947692
 20
2.363263641177396
 10
5.58418132394788
 20
2.363263641177396
 10
5.58418132394788
 20
2.293263641177397
 10
5.534181323947881
 20
2.293263641177443
 10
5.534181323947905
 20
2.39326364117738
 10
5.554181323947936
 20
2.413263641177396
 10
5.654181323947749
 20
2.413263641177396
 10
5.654181323947749
 20
2.475763641177396
 10
5.534181323947837
 20
2.475763641177396
 10
5.53418132394778
 20
2.525763641177408
 10
5.654181323947749
 20
2.525763641177408
 10
5.654181323947749
 20
2.588263641177408
 10
5.586239037607201
 20
2.588263641177437
 42
-0.7673269879788631
 10
5.583739037607204
 20
2.597593768196361
 10
5.654181323947749
 20
2.63826364117739
 10
5.704181323947753
 20
2.638263641177414
 10
5.704181323947753
 20
0.6382636411774146
 10
4.636181323947752
 20
0.6382636411774146
 10
4.636181323947752
 20
2.638263641177414
 10
4.686181323947756
 20
2.63826364117739
 10
4.756623610288301
 20
2.59759376819636
 42
-0.7673269879788104
 10
4.754123610288304
 20
2.588263641177437
 10
4.686181323947756
 20
2.588263641177408
 10
4.686181323947756
 20
2.525763641177408
 10
4.806181323947725
 20
2.525763641177408
 10
4.806181323947668
 20
2.475763641177396
 10
4.686181323947756
 20
2.475763641177396
 10
4.686181323947756
 20
2.413263641177396
 10
4.786181323947569
 20
2.413263641177396
 10
4.806181323947599
 20
2.39326364117738
 10
4.806181323947624
 20
2.293263641177443
 10
4.756181323947624
 20
2.293263641177397
 10
4.756181323947624
 20
2.363263641177396
 10
4.686181323947813
 20
2.363263641177396
 10
4.686181323947811
 20
2.151263641177396
 10
4.756181323947648
 20
2.151263641177396
 10
4.756181323947648
 20
2.201263641177396
 10
4.806181323947649
 20
2.201263641177396
 10
4.806181323947592
 20
2.101263641177396
 10
4.714181323947871
 20
2.101263641177396
 10
4.714181323947745
 20
0.7162636411774148
 10
4.898181323947657
 20
0.7162636411774148
 10
4.898181323947657
 20
0.7787636411774148
1001
ACAD
1000
ASC_BOUNDS
1002
{
1070
    19
1005
2FFD2
1002
}
  0
LWPOLYLINE
  5
686F7
330
685D5
100
AcDbEntity
  8
0
  6
Continuous
100
AcDbPolyline
 90
       12
 70
     1
 43
0.0
 10
5.107681323948313
 20
4.038263641177504
 10
5.107681323948318
 20
3.850263641177504
 10
5.147681323948316
 20
3.850263641177504
 10
5.147681323948316
 20
2.588263641177506
 10
4.707931323948316
 20
2.588263641177506
 10
4.707931323948316
 20
2.538263641177505
 10
5.632431323948314
 20
2.538263641177505
 10
5.632431323948314
 20
2.588263641177506
 10
5.192681323948312
 20
2.588263641177504
 10
5.192681323948319
 20
3.850263641177504
 10
5.232681323948311
 20
3.850263641177504
 10
5.232681323948313
 20
4.038263641177504
1001
ACAD
1000
ASC_BOUNDS
1002
{
1070
    19
1005
2FFD2
1005
2FF90
1002
}
  0
VIEWPORT
  5
5D
102
{ACAD_XDICTIONARY
360
686FE
102
}
330
685D1
100
AcDbEntity
 67
     1
  8
0
100
AcDbViewport
 10
5.102836672053319
 20
3.882552595148704
 30
0.0
 40
15.27709702521403
 41
7.836252121168606
 68
     1
 69
     1
 12
5.102836672053319
 22
3.882552595148704
 13
0.0
 23
0.0
 14
0.5
 24
0.5
 15
0.5
 25
0.5
 16
0.0
 26
0.0
 36
1.0
 17
0.0
 27
0.0
 37
0.0
 42
50.0
 43
0.0
 44
0.0
 45
7.836252121168606
 50
0.0
 51
0.0
 72
   100
 90
   819232
  1

281
     0
 71
     0
 74
     0
110
0.0
120
0.0
130
0.0
111
1.0
121
0.0
131
0.0
112
0.0
122
1.0
132
0.0
 79
     0
146
0.0
  0
ENDSEC
  0
SECTION
  2
OBJECTS
  0
DICTIONARY
  5
685AB
330
0
100
AcDbDictionary
281
     1
  3
ACAD_COLOR
350
685CE
  3
ACAD_GROUP
350
685AC
  3
ACAD_LAYOUT
350
685CD
  3
ACAD_MATERIAL
350
685AF
  3
ACAD_MLINESTYLE
350
685CA
  3
ACAD_PLOTSETTINGS
350
685CC
  3
ACAD_PLOTSTYLENAME
350
685AD
  3
ACAD_TABLESTYLE
350
685CF
  3
ACAD_VISUALSTYLE
350
685B3
  3
AcDbVariableDictionary
350
686F8
  3
BNS_VARIABLES
350
686A1
  3
DWGPROPS
350
686FD
  0
DICTIONARY
  5
686B4
330
685D5
100
AcDbDictionary
280
     1
281
     1
  3
ACAD_SORTENTS
360
686B5
  0
DICTIONARY
  5
686FE
330
5D
100
AcDbDictionary
280
     1
281
     1
  3
ACAD_XREC_ROUNDTRIP
360
686FF
  0
DICTIONARY
  5
685CE
102
{ACAD_REACTORS
330
685AB
102
}
330
685AB
100
AcDbDictionary
281
     1
  0
DICTIONARY
  5
685AC
102
{ACAD_REACTORS
330
685AB
102
}
330
685AB
100
AcDbDictionary
281
     1
  0
DICTIONARY
  5
685CD
102
{ACAD_REACTORS
330
685AB
102
}
330
685AB
100
AcDbDictionary
281
     1
  3
Layout1
350
685D4
  3
Model
350
685D8
  0
DICTIONARY
  5
685AF
102
{ACAD_REACTORS
330
685AB
102
}
330
685AB
100
AcDbDictionary
281
     1
  3
ByBlock
350
685B1
  3
ByLayer
350
685B0
  3
Global
350
685B2
  0
DICTIONARY
  5
685CA
102
{ACAD_REACTORS
330
685AB
102
}
330
685AB
100
AcDbDictionary
281
     1
  3
Standard
350
685CB
  0
DICTIONARY
  5
685CC
102
{ACAD_REACTORS
330
685AB
102
}
330
685AB
100
AcDbDictionary
281
     1
  0
ACDBDICTIONARYWDFLT
  5
685AD
102
{ACAD_REACTORS
330
685AB
102
}
330
685AB
100
AcDbDictionary
281
     1
  3
Normal
350
685AE
100
AcDbDictionaryWithDefault
340
685AE
  0
DICTIONARY
  5
685CF
102
{ACAD_REACTORS
330
685AB
102
}
330
685AB
100
AcDbDictionary
281
     1
  3
Standard
350
685D0
  0
DICTIONARY
  5
685B3
102
{ACAD_REACTORS
330
685AB
102
}
330
685AB
100
AcDbDictionary
281
     1
  3
2dWireframe
350
685B9
  3
3D Hidden
350
6865B
  3
3dWireframe
350
6865A
  3
Basic
350
685B8
  3
Brighten
350
685BF
  3
ColorChange
350
685C3
  3
Conceptual
350
6865C
  3
Dim
350
685BE
  3
Facepattern
350
685C2
  3
Flat
350
685B4
  3
FlatWithEdges
350
685B5
  3
Gouraud
350
685B6
  3
GouraudWithEdges
350
685B7
  3
Linepattern
350
685C1
  3
Realistic
350
6865D
  3
Thicken
350
685C0
  0
DICTIONARY
  5
686F8
102
{ACAD_REACTORS
330
685AB
102
}
330
685AB
100
AcDbDictionary
281
     1
  3
CTABLESTYLE
350
686F9
  3
DIMASSOC
350
686FC
  3
INDEXCTL
350
686FB
  3
SORTENTS
350
686FA
  0
DICTIONARY
  5
686A1
102
{ACAD_REACTORS
330
685AB
102
}
330
685AB
100
AcDbDictionary
281
     1
  3
ACET-OVERKILL-FUZZ
350
686A2
  3
ACET-OVERKILL-NO-ENDTOEND
350
686A5
  3
ACET-OVERKILL-NO-PARTIAL
350
686A4
  3
ACET-OVERKILL-NO-PLINES
350
686A3
  0
XRECORD
  5
686FD
102
{ACAD_REACTORS
330
685AB
102
}
330
685AB
100
AcDbXrecord
280
     1
  1
DWGPROPS COOKIE
  2

  3

  4

  6

  7

  8
Leonard
  9

300
=
301
=
302
=
303
=
304
=
305
=
306
=
307
=
308
=
309
=
 40
0.8090311226851852
 41
2451225.386950695
 42
2454690.612544699
  1

 90
        0
  0
SORTENTSTABLE
  5
686B5
102
{ACAD_REACTORS
330
686B4
102
}
330
686B4
100
AcDbSortentsTable
330
685D5
331
2FFD2
  5
686F4
331
2FF90
  5
686F3
331
2FFE1
  5
686F6
331
2FFEF
  5
686F7
331
686F7
  5
686E7
331
2FFD3
  5
686F5
331
686F6
  5
2FFD2
  0
XRECORD
  5
686FF
102
{ACAD_REACTORS
330
686FE
102
}
330
686FE
100
AcDbXrecord
280
     1
102
SHADEPLOT
 70
     0
  0
LAYOUT
  5
685D4
102
{ACAD_XDICTIONARY
360
68708
102
}
102
{ACAD_REACTORS
330
685CD
102
}
330
685CD
100
AcDbPlotSettings
  1

  2
\\exchange-server\MP80
  4

  6

 40
0.0
 41
0.0
 42
0.0
 43
0.0
 44
0.0
 45
0.0
 46
0.0
 47
0.0
 48
0.0
 49
0.0
140
0.0
141
0.0
142
1.0
143
1.0
 70
   688
 72
     0
 73
     0
 74
     5
  7
GORDON-BLK.ctb
 75
    16
147
1.0
148
0.0
149
0.0
100
AcDbLayout
  1
Layout1
 70
     1
 71
     1
 10
-0.2079161059762549
 20
-0.2079166691697489
 11
10.79208365372785
 21
8.29208309053436
 12
0.0
 22
0.0
 32
0.0
 14
-0.0001218952091371
 24
-0.0000080246436092
 34
-0.0000000000000053
 15
10.20579523931576
 25
7.765113214941017
 35
0.0000000000000099
146
0.0
 13
0.0
 23
0.0
 33
0.0
 16
1.0
 26
0.0
 36
0.0
 17
0.0
 27
1.0
 37
0.0
 76
     0
330
685D1
331
5D
  0
LAYOUT
  5
685D8
102
{ACAD_XDICTIONARY
360
6870A
102
}
102
{ACAD_REACTORS
330
685CD
102
}
330
685CD
100
AcDbPlotSettings
  1

  2
\\exchange-server\MP80
  4

  6

 40
0.0
 41
0.0
 42
0.0
 43
0.0
 44
0.0
 45
0.0
 46
0.0
 47
0.0
 48
0.0
 49
0.0
140
0.0
141
0.0
142
1.0
143
1.0
 70
  1712
 72
     0
 73
     0
 74
     0
  7
GORDON-BLK.ctb
 75
     0
147
1.0
148
0.0
149
0.0
100
AcDbLayout
  1
Model
 70
     1
 71
     0
 10
0.0
 20
0.0
 11
12.0
 21
9.0
 12
0.0
 22
0.0
 32
0.0
 14
0.0
 24
0.0
 34
0.0
 15
0.0
 25
0.0
 35
0.0
146
0.0
 13
0.0
 23
0.0
 33
0.0
 16
1.0
 26
0.0
 36
0.0
 17
0.0
 27
1.0
 37
0.0
 76
     0
330
685D5
331
685DA
  0
MATERIAL
  5
685B1
102
{ACAD_XDICTIONARY
360
68702
102
}
102
{ACAD_REACTORS
330
685AF
102
}
330
685AF
100
AcDbMaterial
  1
ByBlock
  0
MATERIAL
  5
685B0
102
{ACAD_XDICTIONARY
360
68700
102
}
102
{ACAD_REACTORS
330
685AF
102
}
330
685AF
100
AcDbMaterial
  1
ByLayer
  0
MATERIAL
  5
685B2
102
{ACAD_XDICTIONARY
360
68704
102
}
102
{ACAD_REACTORS
330
685AF
102
}
330
685AF
100
AcDbMaterial
  1
Global
  0
MLINESTYLE
  5
685CB
102
{ACAD_REACTORS
330
685CA
102
}
330
685CA
100
AcDbMlineStyle
  2
STANDARD
 70
     0
  3

 62
   256
 51
90.0
 52
90.0
 71
     2
 49
0.5
 62
   256
  6
BYLAYER
 49
-0.5
 62
   256
  6
BYLAYER
  0
ACDBPLACEHOLDER
  5
685AE
102
{ACAD_REACTORS
330
685AD
102
}
330
685AD
  0
TABLESTYLE
  5
685D0
102
{ACAD_XDICTIONARY
360
68706
102
}
102
{ACAD_REACTORS
330
685CF
102
}
330
685CF
100
AcDbTableStyle
  3
Standard
 70
     0
 71
     0
 40
0.06
 41
0.06
280
     0
281
     0
  7
STANDARD
140
0.18
170
     2
 62
     0
 63
     7
283
     0
274
    -2
284
     1
 64
     0
275
    -2
285
     1
 65
     0
276
    -2
286
     1
 66
     0
277
    -2
287
     1
 67
     0
278
    -2
288
     1
 68
     0
279
    -2
289
     1
 69
     0
  7
STANDARD
140
0.25
170
     5
 62
     0
 63
     7
283
     0
274
    -2
284
     1
 64
     0
275
    -2
285
     1
 65
     0
276
    -2
286
     1
 66
     0
277
    -2
287
     1
 67
     0
278
    -2
288
     1
 68
     0
279
    -2
289
     1
 69
     0
  7
STANDARD
140
0.18
170
     5
 62
     0
 63
     7
283
     0
274
    -2
284
     1
 64
     0
275
    -2
285
     1
 65
     0
276
    -2
286
     1
 66
     0
277
    -2
287
     1
 67
     0
278
    -2
288
     1
 68
     0
279
    -2
289
     1
 69
     0
  0
VISUALSTYLE
  5
685B9
102
{ACAD_REACTORS
330
685B3
102
}
330
685B3
100
AcDbVisualStyle
  2
2dWireframe
 70
     4
 71
     0
 72
     2
 73
     0
 90
        0
 40
-0.6
 41
-30.0
 62
     5
 63
     7
 74
     1
 91
        4
 64
     7
 65
   257
 75
     1
175
     1
 42
1.0
 92
        0
 66
   257
 43
1.0
 76
     1
 77
     6
 78
     2
 67
     7
 79
     5
170
     0
171
     0
290
     0
174
     0
 93
        1
 44
0.0
173
     0
291
     0
 45
0.0
1001
ACAD
1000
AcDbSavedByObjectVersion
1070
     0
  0
VISUALSTYLE
  5
6865B
102
{ACAD_REACTORS
330
685B3
102
}
330
685B3
100
AcDbVisualStyle
  2
3D Hidden
 70
     6
 71
     1
 72
     2
 73
     2
 90
        0
 40
-0.6
 41
-30.0
 62
     5
 63
     7
 74
     2
 91
        2
 64
     7
 65
   257
 75
     2
175
     1
 42
40.0
 92
        0
 66
   257
 43
1.0
 76
     1
 77
     6
 78
     2
 67
     7
 79
     3
170
     0
171
     0
290
     0
174
     0
 93
        1
 44
0.0
173
     0
291
     0
 45
0.0
1001
ACAD
1000
AcDbSavedByObjectVersion
1070
     0
  0
VISUALSTYLE
  5
6865A
102
{ACAD_REACTORS
330
685B3
102
}
330
685B3
100
AcDbVisualStyle
  2
3dWireframe
 70
     5
 71
     0
 72
     2
 73
     0
 90
        0
 40
-0.6
 41
-30.0
 62
     5
 63
     7
 74
     1
 91
        4
 64
     7
 65
   257
 75
     1
175
     1
 42
1.0
 92
        0
 66
   257
 43
1.0
 76
     1
 77
     6
 78
     2
 67
     7
 79
     5
170
     0
171
     0
290
     0
174
     0
 93
        1
 44
0.0
173
     0
291
     0
 45
0.0
1001
ACAD
1000
AcDbSavedByObjectVersion
1070
     0
  0
VISUALSTYLE
  5
685B8
102
{ACAD_REACTORS
330
685B3
102
}
330
685B3
100
AcDbVisualStyle
  2
Basic
 70
     7
 71
     1
 72
     0
 73
     1
 90
        0
 40
-0.6
 41
-30.0
 62
     5
 63
     7
 74
     0
 91
        4
 64
     7
 65
   257
 75
     1
175
     1
 42
1.0
 92
        8
 66
     7
 43
1.0
 76
     1
 77
     6
 78
     2
 67
     7
 79
     5
170
     0
171
     0
290
     0
174
     0
 93
        1
 44
0.0
173
     0
291
     1
 45
0.0
1001
ACAD
1000
AcDbSavedByObjectVersion
1070
     0
  0
VISUALSTYLE
  5
685BF
102
{ACAD_REACTORS
330
685B3
102
}
330
685B3
100
AcDbVisualStyle
  2
Brighten
 70
    12
 71
     2
 72
     2
 73
     0
 90
        0
 40
-0.6
 41
-30.0
 62
     5
 63
     7
 74
     1
 91
        4
 64
     7
 65
   257
 75
     1
175
     1
 42
1.0
 92
        8
 66
     7
 43
1.0
 76
     1
 77
     6
 78
     2
 67
     7
 79
     5
170
     0
171
     0
290
     0
174
     0
 93
        1
 44
50.0
173
     0
291
     1
 45
0.0
1001
ACAD
1000
AcDbSavedByObjectVersion
1070
     0
  0
VISUALSTYLE
  5
685C3
102
{ACAD_REACTORS
330
685B3
102
}
330
685B3
100
AcDbVisualStyle
  2
ColorChange
 70
    16
 71
     2
 72
     2
 73
     3
 90
        0
 40
-0.6
 41
-30.0
 62
     5
 63
     8
 74
     1
 91
        4
 64
     7
 65
   257
 75
     1
175
     1
 42
1.0
 92
        8
 66
     8
 43
1.0
 76
     1
 77
     6
 78
     2
 67
     7
 79
     5
170
     0
171
     0
290
     0
174
     0
 93
        1
 44
0.0
173
     0
291
     1
 45
0.0
1001
ACAD
1000
AcDbSavedByObjectVersion
1070
     0
  0
VISUALSTYLE
  5
6865C
102
{ACAD_REACTORS
330
685B3
102
}
330
685B3
100
AcDbVisualStyle
  2
Conceptual
 70
     9
 71
     3
 72
     2
 73
     0
 90
        0
 40
-0.6
 41
-30.0
 62
     5
 63
     7
 74
     2
 91
        2
 64
     7
 65
   257
 75
     1
175
     1
 42
40.0
 92
        8
 66
     7
 43
1.0
 76
     1
 77
     6
 78
     2
 67
     7
 79
     3
170
     0
171
     0
290
     0
174
     0
 93
        1
 44
0.0
173
     0
291
     0
 45
0.0
1001
ACAD
1000
AcDbSavedByObjectVersion
1070
     0
  0
VISUALSTYLE
  5
685BE
102
{ACAD_REACTORS
330
685B3
102
}
330
685B3
100
AcDbVisualStyle
  2
Dim
 70
    11
 71
     2
 72
     2
 73
     0
 90
        0
 40
-0.6
 41
-30.0
 62
     5
 63
     7
 74
     1
 91
        4
 64
     7
 65
   257
 75
     1
175
     1
 42
1.0
 92
        8
 66
     7
 43
1.0
 76
     1
 77
     6
 78
     2
 67
     7
 79
     5
170
     0
171
     0
290
     0
174
     0
 93
        1
 44
-50.0
173
     0
291
     1
 45
0.0
1001
ACAD
1000
AcDbSavedByObjectVersion
1070
     0
  0
VISUALSTYLE
  5
685C2
102
{ACAD_REACTORS
330
685B3
102
}
330
685B3
100
AcDbVisualStyle
  2
Facepattern
 70
    15
 71
     2
 72
     2
 73
     0
 90
        0
 40
-0.6
 41
-30.0
 62
     5
 63
     7
 74
     1
 91
        4
 64
     7
 65
   257
 75
     1
175
     1
 42
1.0
 92
        8
 66
     7
 43
1.0
 76
     1
 77
     6
 78
     2
 67
     7
 79
     5
170
     0
171
     0
290
     0
174
     0
 93
        1
 44
0.0
173
     0
291
     1
 45
0.0
1001
ACAD
1000
AcDbSavedByObjectVersion
1070
     0
  0
VISUALSTYLE
  5
685B4
102
{ACAD_REACTORS
330
685B3
102
}
330
685B3
100
AcDbVisualStyle
  2
Flat
 70
     0
 71
     2
 72
     1
 73
     1
 90
        2
 40
-0.6
 41
30.0
 62
     5
 63
     7
 74
     0
 91
        4
 64
     7
 65
   257
 75
     1
175
     1
 42
1.0
 92
        8
 66
     7
 43
1.0
 76
     1
 77
     6
 78
     2
 67
     7
 79
     5
170
     0
171
     0
290
     0
174
     0
 93
       13
 44
0.0
173
     0
291
     1
 45
0.0
1001
ACAD
1000
AcDbSavedByObjectVersion
1070
     0
  0
VISUALSTYLE
  5
685B5
102
{ACAD_REACTORS
330
685B3
102
}
330
685B3
100
AcDbVisualStyle
  2
FlatWithEdges
 70
     1
 71
     2
 72
     1
 73
     1
 90
        2
 40
-0.6
 41
30.0
 62
     5
 63
     7
 74
     1
 91
        4
 64
     7
 65
   257
 75
     1
175
     1
 42
1.0
 92
        0
 66
   257
 43
1.0
 76
     1
 77
     6
 78
     2
 67
     7
 79
     5
170
     0
171
     0
290
     0
174
     0
 93
       13
 44
0.0
173
     0
291
     1
 45
0.0
1001
ACAD
1000
AcDbSavedByObjectVersion
1070
     0
  0
VISUALSTYLE
  5
685B6
102
{ACAD_REACTORS
330
685B3
102
}
330
685B3
100
AcDbVisualStyle
  2
Gouraud
 70
     2
 71
     2
 72
     2
 73
     1
 90
        2
 40
-0.6
 41
30.0
 62
     5
 63
     7
 74
     0
 91
        4
 64
     7
 65
   257
 75
     1
175
     1
 42
1.0
 92
        0
 66
     7
 43
1.0
 76
     1
 77
     6
 78
     2
 67
     7
 79
     5
170
     0
171
     0
290
     0
174
     0
 93
       13
 44
0.0
173
     0
291
     1
 45
0.0
1001
ACAD
1000
AcDbSavedByObjectVersion
1070
     0
  0
VISUALSTYLE
  5
685B7
102
{ACAD_REACTORS
330
685B3
102
}
330
685B3
100
AcDbVisualStyle
  2
GouraudWithEdges
 70
     3
 71
     2
 72
     2
 73
     1
 90
        2
 40
-0.6
 41
30.0
 62
     5
 63
     7
 74
     1
 91
        4
 64
     7
 65
   257
 75
     1
175
     1
 42
1.0
 92
        0
 66
   257
 43
1.0
 76
     1
 77
     6
 78
     2
 67
     7
 79
     5
170
     0
171
     0
290
     0
174
     0
 93
       13
 44
0.0
173
     0
291
     1
 45
0.0
1001
ACAD
1000
AcDbSavedByObjectVersion
1070
     0
  0
VISUALSTYLE
  5
685C1
102
{ACAD_REACTORS
330
685B3
102
}
330
685B3
100
AcDbVisualStyle
  2
Linepattern
 70
    14
 71
     2
 72
     2
 73
     0
 90
        0
 40
-0.6
 41
-30.0
 62
     5
 63
     7
 74
     1
 91
        4
 64
     7
 65
   257
 75
     7
175
     7
 42
1.0
 92
        8
 66
     7
 43
1.0
 76
     1
 77
     6
 78
     2
 67
     7
 79
     5
170
     0
171
     0
290
     0
174
     0
 93
        1
 44
0.0
173
     0
291
     1
 45
0.0
1001
ACAD
1000
AcDbSavedByObjectVersion
1070
     0
  0
VISUALSTYLE
  5
6865D
102
{ACAD_REACTORS
330
685B3
102
}
330
685B3
100
AcDbVisualStyle
  2
Realistic
 70
     8
 71
     2
 72
     2
 73
     0
 90
        0
 40
-0.6
 41
-30.0
 62
     5
 63
     7
 74
     1
 91
        0
 64
     7
 65
   257
 75
     1
175
     1
 42
1.0
 92
        8
 66
     8
 43
1.0
 76
     1
 77
     6
 78
     2
 67
     7
 79
     5
170
     0
171
     0
290
     0
174
     0
 93
       13
 44
0.0
173
     0
291
     0
 45
0.0
1001
ACAD
1000
AcDbSavedByObjectVersion
1070
     0
  0
VISUALSTYLE
  5
685C0
102
{ACAD_REACTORS
330
685B3
102
}
330
685B3
100
AcDbVisualStyle
  2
Thicken
 70
    13
 71
     2
 72
     2
 73
     0
 90
        0
 40
-0.6
 41
-30.0
 62
     5
 63
     7
 74
     1
 91
        4
 64
     7
 65
   257
 75
     1
175
     1
 42
1.0
 92
       12
 66
     7
 43
1.0
 76
     1
 77
     6
 78
     2
 67
     7
 79
     5
170
     0
171
     0
290
     0
174
     0
 93
        1
 44
0.0
173
     0
291
     1
 45
0.0
1001
ACAD
1000
AcDbSavedByObjectVersion
1070
     0
  0
DICTIONARYVAR
  5
686F9
102
{ACAD_REACTORS
330
686F8
102
}
330
686F8
100
DictionaryVariables
280
     0
  1
STANDARD
  0
DICTIONARYVAR
  5
686FC
102
{ACAD_REACTORS
330
686F8
102
}
330
686F8
100
DictionaryVariables
280
     0
  1
1
  0
DICTIONARYVAR
  5
686FB
102
{ACAD_REACTORS
330
686F8
102
}
330
686F8
100
DictionaryVariables
280
     0
  1
0
  0
DICTIONARYVAR
  5
686FA
102
{ACAD_REACTORS
330
686F8
102
}
330
686F8
100
DictionaryVariables
280
     0
  1
127
  0
XRECORD
  5
686A2
102
{ACAD_REACTORS
330
686A1
102
}
330
686A1
100
AcDbXrecord
280
     1
 40
0.0
  0
XRECORD
  5
686A5
102
{ACAD_REACTORS
330
686A1
102
}
330
686A1
100
AcDbXrecord
280
     1
 70
     0
  0
XRECORD
  5
686A4
102
{ACAD_REACTORS
330
686A1
102
}
330
686A1
100
AcDbXrecord
280
     1
 70
     0
  0
XRECORD
  5
686A3
102
{ACAD_REACTORS
330
686A1
102
}
330
686A1
100
AcDbXrecord
280
     1
 70
     0
  0
DICTIONARY
  5
68708
330
685D4
100
AcDbDictionary
280
     1
281
     1
  3
ACAD_XREC_ROUNDTRIP
360
68709
  0
DICTIONARY
  5
6870A
330
685D8
100
AcDbDictionary
280
     1
281
     1
  3
ACAD_XREC_ROUNDTRIP
360
6870B
  0
DICTIONARY
  5
68702
330
685B1
100
AcDbDictionary
280
     1
281
     1
  3
ACAD_XREC_ROUNDTRIP
360
68703
  0
DICTIONARY
  5
68700
330
685B0
100
AcDbDictionary
280
     1
281
     1
  3
ACAD_XREC_ROUNDTRIP
360
68701
  0
DICTIONARY
  5
68704
330
685B2
100
AcDbDictionary
280
     1
281
     1
  3
ACAD_XREC_ROUNDTRIP
360
68705
  0
DICTIONARY
  5
68706
330
685D0
100
AcDbDictionary
280
     1
281
     1
  3
ACAD_XREC_ROUNDTRIP
360
68707
  0
XRECORD
  5
68709
102
{ACAD_REACTORS
330
68708
102
}
330
68708
100
AcDbXrecord
280
     1
102
SHADEPLOT
 70
     0
102
SHADEPLOTRESLEVEL
 70
     2
102
SHADEPLOTCUSTOMDPI
 70
   300
  0
XRECORD
  5
6870B
102
{ACAD_REACTORS
330
6870A
102
}
330
6870A
100
AcDbXrecord
280
     1
102
SHADEPLOT
 70
     0
102
SHADEPLOTRESLEVEL
 70
     2
102
SHADEPLOTCUSTOMDPI
 70
   300
  0
XRECORD
  5
68703
102
{ACAD_REACTORS
330
68702
102
}
330
68702
100
AcDbXrecord
280
     1
102
MATERIAL
148
0.0
149
0.0
149
0.0
 93
        0
 94
       63
282
     0
 72
     1
 77
     1
171
     1
175
     1
179
     1
273
     0
  0
XRECORD
  5
68701
102
{ACAD_REACTORS
330
68700
102
}
330
68700
100
AcDbXrecord
280
     1
102
MATERIAL
148
0.0
149
0.0
149
0.0
 93
        0
 94
       63
282
     0
 72
     1
 77
     1
171
     1
175
     1
179
     1
273
     0
  0
XRECORD
  5
68705
102
{ACAD_REACTORS
330
68704
102
}
330
68704
100
AcDbXrecord
280
     1
102
MATERIAL
148
0.0
149
0.0
149
0.0
 93
        0
 94
       63
282
     0
 72
     1
 77
     1
171
     1
175
     1
179
     1
273
     0
  0
XRECORD
  5
68707
102
{ACAD_REACTORS
330
68706
102
}
330
68706
100
AcDbXrecord
280
     1
102
ACAD_ROUNDTRIP_PRE2007_TABLESTYLE
 90
      512
 91
        0
  1

 92
      512
 93
        0
  2

 94
      512
 95
        0
  3

  0
ENDSEC
  0
EOF
